<?xml version="1.0" standalone="no"?>
<!DOCTYPE svg PUBLIC "-//W3C//DTD SVG 1.1//EN" "http://www.w3.org/Graphics/SVG/1.1/DTD/svg11.dtd" >
<svg xmlns="http://www.w3.org/2000/svg">
<metadata>
This is a custom SVG webfont generated by Font Squirrel.
Copyright   : c 20012011 Typodermic Fonts design Ray Larabie kerning  languages Chikako Larabie license agreement typodermicfontscompageslicense
Designer    : Ray Larabie
Foundry     : Ray Larabie
</metadata>
<defs>
<font id="SteelfishBold" horiz-adv-x="575" >
<font-face units-per-em="2048" ascent="1743" descent="-305" />
<missing-glyph horiz-adv-x="278" />
<glyph unicode=" "  horiz-adv-x="278" />
<glyph unicode="&#x09;" horiz-adv-x="278" />
<glyph unicode="&#xa0;" horiz-adv-x="278" />
<glyph unicode="!" horiz-adv-x="354" d="M80 0v223h194v-223h-194zM80 934v752h194v-748l-38 -612h-119z" />
<glyph unicode="&#x22;" horiz-adv-x="565" d="M61 1497v189h170v-189l-36 -278h-97zM334 1497v189h170v-189l-37 -278h-96z" />
<glyph unicode="#" horiz-adv-x="821" d="M41 594v162h143l35 221h-143v162h170l84 547h129l-88 -547h168l86 547h127l-88 -547h116v-162h-141l-35 -221h137v-162h-163l-93 -594h-125l95 594h-170l-95 -594h-122l92 594h-119zM309 756h170l35 221h-170z" />
<glyph unicode="$" horiz-adv-x="587" d="M59 297v321h144v-323q0 -92 63 -105v558l-69 71q-84 86 -111 149.5t-27 178.5v242q0 125 52.5 194.5t148.5 79.5v117h64v-117q197 -18 196 -274v-271h-139v285q0 76 -66 92v-545l74 -67q84 -76 110.5 -146.5t26.5 -216.5v-223q0 -256 -202 -279v-124h-64v126 q-201 21 -201 277zM203 1143q0 -82 63 -152v504q-63 -12 -63 -92v-260zM315 190q61 10 62 91v206q0 82 -12.5 129.5t-49.5 90.5v-517z" />
<glyph unicode="%" horiz-adv-x="991" d="M57 0l752 1686h125l-750 -1686h-127zM63 997v576q0 143 142 143q139 0 139 -143v-576q0 -143 -139 -143q-142 0 -142 143zM174 995q0 -31 31 -30q29 0 28 30v580q0 31 -28 31q-31 0 -31 -31v-580zM645 113v575q0 143 141 143q139 0 140 -143v-575q0 -143 -140 -144 q-141 1 -141 144zM756 111q0 -31 30 -31q29 0 29 31v579q0 31 -29 31q-31 0 -30 -31v-579z" />
<glyph unicode="&#x26;" horiz-adv-x="778" d="M51 332v121q0 133 30 225t126 219l-41 115q-59 162 -60 315v100q0 147 54.5 211t177.5 64q221 0 221 -270v-125q0 -106 -39 -200.5t-133 -234.5l176 -497q25 84 25 192v58h145v-66q0 -227 -88 -379q14 -10 33 -10q45 0 67 25v-181q-39 -23 -102 -22q-68 0 -111 49 q-61 -59 -194 -59q-166 0 -226.5 83t-60.5 267zM236 336q0 -92 26.5 -135t91.5 -43q74 0 107 32l-180 515q-45 -82 -45 -244v-125zM268 1354q0 -131 35 -248l19 -57q86 127 86 288v60q0 121 -68 121q-72 0 -72 -99v-65z" />
<glyph unicode="'" horiz-adv-x="292" d="M61 1497v189h170v-189l-36 -278h-97z" />
<glyph unicode="(" horiz-adv-x="524" d="M150 190v1305q0 184 77.5 269t237.5 85h18v-137h-18q-180 0 -180 -217v-1305q0 -217 180 -217h18v-137h-18q-160 0 -237.5 85t-77.5 269z" />
<glyph unicode=")" horiz-adv-x="524" d="M150 -27h18q180 0 180 217v1305q0 217 -180 217h-18v137h18q160 0 237.5 -85t77.5 -269v-1305q0 -184 -77.5 -269t-237.5 -85h-18v137z" />
<glyph unicode="*" horiz-adv-x="667" d="M29 1421l34 109l226 -86l-15 242h117l-14 -242l225 90l35 -111l-234 -63l154 -186l-92 -68l-133 205l-129 -205l-92 68l151 186z" />
<glyph unicode="+" horiz-adv-x="954" d="M74 788v142h334v334h141v-334h336v-142h-336v-335h-141v335h-334z" />
<glyph unicode="," horiz-adv-x="299" d="M61 45v211h177v-248q0 -133 -134 -133h-20v78h18q39 0 39 43v49h-80z" />
<glyph unicode="-" horiz-adv-x="372" d="M25 776v146h327v-146h-327z" />
<glyph unicode="." horiz-adv-x="296" d="M61 0v256h177v-256h-177z" />
<glyph unicode="/" horiz-adv-x="495" d="M10 0l336 1686h139l-338 -1686h-137z" />
<glyph unicode="0" horiz-adv-x="675" d="M61 268v1149q0 287 276.5 287t276.5 -287v-1149q0 -287 -276.5 -287t-276.5 287zM250 264q0 -96 88 -96q90 0 90 96v1157q0 96 -90 97q-88 0 -88 -97v-1157z" />
<glyph unicode="1" horiz-adv-x="389" d="M33 1376v185h43q68 0 67 79v46h168v-1686h-186v1376h-92z" />
<glyph unicode="2" horiz-adv-x="636" d="M51 0v307q0 156 30 248t128 233q121 172 154.5 250t33.5 195v180q0 100 -80 100q-78 0 -77 -100v-295h-189v293q0 154 64.5 223.5t201.5 69.5q270 0 271 -293v-197q0 -223 -176 -471q-111 -156 -140.5 -235.5t-29.5 -200.5v-119h346v-188h-537z" />
<glyph unicode="3" horiz-adv-x="638" d="M51 266v332h191v-330q0 -98 77 -98q82 0 82 98v404q0 51 -18 74.5t-64 23.5h-83v178h92q41 0 56 23.5t15 75.5v368q0 51 -18.5 74.5t-61.5 23.5t-60 -23.5t-17 -74.5v-299h-187v297q0 152 63.5 221.5t201 69.5t200 -69.5t62.5 -223.5v-373q0 -131 -109 -180 q113 -33 113 -182v-408q0 -133 -66.5 -209.5t-200.5 -76.5q-131 0 -199.5 76.5t-68.5 207.5z" />
<glyph unicode="4" horiz-adv-x="657" d="M16 336v164l361 1186h178v-1172h82v-178h-82v-336h-176v336h-363zM184 514h195q0 268 10 688q-68 -239 -205 -688z" />
<glyph unicode="5" horiz-adv-x="649" d="M61 817l21 869h500v-191h-328l-18 -494q51 68 161 68q195 0 195 -260v-545q0 -143 -63.5 -212.5t-198.5 -69.5q-266 0 -267 282v354h185v-352q0 -96 82 -96q80 0 80 98v545q0 88 -86 88q-82 0 -99 -90z" />
<glyph unicode="6" horiz-adv-x="657" d="M59 268v1149q0 135 69 211t202 76q260 0 260 -287v-291h-182v291q0 96 -78 96q-80 0 -80 -96v-426q51 68 147 68q106 0 154.5 -62.5t48.5 -201.5v-527q0 -135 -68.5 -210.5t-201.5 -75.5t-202 75.5t-69 210.5zM250 268q0 -98 80 -98t80 98v463q0 76 -16.5 111t-63.5 35 q-70 0 -80 -68v-541z" />
<glyph unicode="7" horiz-adv-x="593" d="M27 1495v191h540v-177q-131 -295 -190.5 -660.5t-61.5 -848.5h-188q0 328 33 612.5t82 463.5t83.5 274.5t63.5 144.5h-362z" />
<glyph unicode="8" horiz-adv-x="647" d="M55 264v408q0 156 113 200q-98 51 -98 187v356q0 289 251.5 289t251.5 -289v-356q0 -137 -96 -187q113 -45 113 -200v-408q0 -283 -268 -282q-267 -1 -267 282zM242 266q0 -96 80 -96q82 0 81 96v420q0 86 -81 86q-80 0 -80 -86v-420zM244 1034q0 -86 78 -86q80 0 79 86 v381q0 53 -17 75.5t-62 22.5q-43 0 -60.5 -22.5t-17.5 -75.5v-381z" />
<glyph unicode="9" horiz-adv-x="655" d="M57 918v499q0 139 68 213t199 74q133 0 201.5 -74t68.5 -211v-1151q0 -135 -68.5 -210.5t-201.5 -75.5q-125 0 -195 76.5t-70 209.5v291h185v-291q0 -98 79.5 -98t79.5 98v453q-47 -68 -145 -68q-104 0 -152.5 62t-48.5 203zM244 936q0 -94 80 -94q72 0 79 69v506 q0 96 -79.5 96t-79.5 -96v-481z" />
<glyph unicode=":" horiz-adv-x="296" d="M61 0v256h177v-256h-177zM61 750v254h177v-254h-177z" />
<glyph unicode=";" horiz-adv-x="299" d="M61 45v211h177v-248q0 -133 -134 -133h-20v78h18q39 0 39 43v49h-80zM61 750v254h177v-254h-177z" />
<glyph unicode="&#x3c;" horiz-adv-x="954" d="M74 772v172l811 248v-141l-668 -189l668 -198v-142z" />
<glyph unicode="=" horiz-adv-x="954" d="M74 596v143h811v-143h-811zM74 979v143h811v-143h-811z" />
<glyph unicode="&#x3e;" horiz-adv-x="954" d="M74 522v142l667 198l-667 189v141l811 -248v-172z" />
<glyph unicode="?" horiz-adv-x="614" d="M47 1118v295q0 150 62.5 220.5t197.5 70.5t199.5 -71.5t64.5 -221.5v-184q0 -219 -102 -340q-70 -80 -84 -122t-14 -151v-231h-176v227q0 123 21.5 193.5t78.5 138.5q61 72 75.5 117t14.5 168v188q0 98 -78 98q-80 0 -80 -96v-299h-180zM195 0v256h176v-256h-176z" />
<glyph unicode="@" horiz-adv-x="1064" d="M57 299v715q0 252 113 361.5t360 109.5q236 0 345.5 -104.5t109.5 -327.5v-621q0 -104 -54 -164.5t-140 -60.5q-121 0 -160 80q-25 -72 -125 -72q-164 0 -164 191v446q0 117 42 163t122 46q86 0 112 -74q0 27 5 64h92v-660q14 -61 69 -61q74 0 74 96v631q0 281 -328 280 q-176 0 -251.5 -79.5t-75.5 -243.5v-719q0 -193 87 -272.5t267 -79.5q322 0 326 157q0 20 -2 29h123q4 -20 4 -41q4 -299 -473 -299q-233 0 -355.5 117t-122.5 393zM467 422q0 -88 74 -88q45 0 61 49v483q-14 59 -61 60q-74 0 -74 -80v-424z" />
<glyph unicode="A" horiz-adv-x="690" d="M20 0l220 1686h219l207 -1686h-191l-31 260h-206q-12 -88 -33 -260h-185zM256 434h168q-55 483 -82 766q-37 -391 -86 -766z" />
<glyph unicode="B" horiz-adv-x="669" d="M74 0v1686h272q135 0 194.5 -71t59.5 -222v-342q0 -145 -90 -179q111 -27 111 -176v-411q0 -147 -68 -216t-207 -69h-272zM262 188h84q82 0 82 99v393q0 53 -18.5 75.5t-61.5 22.5h-86v-590zM262 944h86q76 0 76 88v367q0 51 -18.5 73.5t-59.5 22.5h-84v-551z" />
<glyph unicode="C" horiz-adv-x="634" d="M61 266v1147q0 291 273 291q250 0 250 -287v-299h-172v299q0 96 -78 96q-80 0 -80 -96v-1149q0 -98 80 -98q78 0 78 98v350h172v-348q0 -147 -60.5 -217.5t-189.5 -70.5q-273 -1 -273 284z" />
<glyph unicode="D" horiz-adv-x="671" d="M74 0v1686h266q133 0 201.5 -76t68.5 -213v-1110q0 -287 -270 -287h-266zM262 188h78q82 0 82 99v1110q0 98 -82 98h-78v-1307z" />
<glyph unicode="E" d="M74 0v1686h454v-191h-266v-541h178v-190h-178v-576h277v-188h-465z" />
<glyph unicode="F" horiz-adv-x="555" d="M74 0v1686h465v-191h-277v-549h180v-190h-180v-756h-188z" />
<glyph unicode="G" horiz-adv-x="663" d="M61 268v1147q0 139 69 214t202 75q260 0 260 -289v-297h-170v299q0 96 -90 96q-82 0 -82 -96v-1149q0 -98 80 -98q86 0 92 86v362h-100v181h282v-809h-22l-62 80q-55 -88 -203 -88q-256 -1 -256 286z" />
<glyph unicode="H" horiz-adv-x="684" d="M74 0v1686h188v-734h160v734h188v-1686h-188v764h-160v-764h-188z" />
<glyph unicode="I" horiz-adv-x="344" d="M78 0v1686h188v-1686h-188z" />
<glyph unicode="J" horiz-adv-x="444" d="M18 0v188q41 -10 93 -10q78 0 77 103v1405h191v-1405q0 -293 -268 -293q-48 0 -93 12z" />
<glyph unicode="K" horiz-adv-x="718" d="M72 0v1686h190v-349q0 -266 -4 -368q133 422 231 717h203l-270 -760l291 -926h-217q-25 82 -238 815q4 -135 4 -461v-354h-190z" />
<glyph unicode="L" horiz-adv-x="557" d="M74 0v1686h188v-1498h277v-188h-465z" />
<glyph unicode="M" horiz-adv-x="931" d="M68 0v1686h251q55 -518 142 -1246q102 858 143 1246h258v-1686h-174v492q0 367 8 659q-113 -842 -151 -1151h-164l-148 1151q8 -438 9 -659v-492h-174z" />
<glyph unicode="N" horiz-adv-x="727" d="M68 0v1686h221q123 -692 211 -1145q-4 193 -4 571v574h161v-1686h-184q-51 231 -133 604t-115 526q4 -231 4 -694v-436h-161z" />
<glyph unicode="O" horiz-adv-x="661" d="M61 268v1149q0 287 269 287q270 0 270 -287v-1149q0 -287 -270 -286q-269 -1 -269 286zM250 268q0 -98 80 -98q82 0 82 98v1149q0 96 -82 96q-80 0 -80 -96v-1149z" />
<glyph unicode="P" horiz-adv-x="663" d="M74 0v1686h266q150 0 221.5 -74t71.5 -232v-276q0 -158 -70.5 -230.5t-220.5 -72.5h-80v-801h-188zM262 985h80q104 0 104 113v284q0 113 -106 113h-78v-510z" />
<glyph unicode="Q" horiz-adv-x="661" d="M59 297v1120q0 287 270.5 287t270.5 -287v-1120q0 -258 -217 -285q16 -59 109 -59q66 0 108 43v-148q-45 -45 -139 -45q-98 0 -151.5 62.5t-53.5 150.5q-197 37 -197 281zM250 287q0 -96 80 -96.5t80 96.5v1130q0 96 -80 96t-80 -96v-1130z" />
<glyph unicode="R" horiz-adv-x="679" d="M72 0v1686h262q152 0 224.5 -71t72.5 -233v-342q0 -180 -111 -243q51 -281 125 -797h-207q-57 502 -98 758h-78v-758h-190zM262 930h74q102 0 102 108v305q0 84 -20.5 118t-83.5 34h-72v-565z" />
<glyph unicode="S" horiz-adv-x="638" d="M51 260v358h182v-358q0 -90 80 -90q84 0 84 90v240q0 94 -59 170q-20 27 -104 125t-132 166q-51 72 -51 213v251q0 279 268 279q139 0 200 -67.5t61 -211.5v-307h-177v305q0 90 -79.5 90t-79.5 -88v-249q0 -72 32 -115q31 -41 114 -137.5t124 -153.5q72 -100 72 -268 v-242q0 -279 -267 -278q-268 -1 -268 278z" />
<glyph unicode="T" horiz-adv-x="581" d="M20 1495v191h541v-191h-176v-1495h-188v1495h-177z" />
<glyph unicode="U" horiz-adv-x="671" d="M68 268v1418h188v-1418q0 -98 80 -98t80 98v1418h188v-1418q0 -287 -268 -287t-268 287z" />
<glyph unicode="V" horiz-adv-x="696" d="M23 1686h196q20 -225 52 -547t52.5 -533t22.5 -278q4 66 26.5 279.5t56.5 529t56 549.5h189l-207 -1686h-252z" />
<glyph unicode="W" horiz-adv-x="1089" d="M23 1686h196q18 -254 44 -550t42.5 -479.5t18.5 -220.5q4 37 133 1250h176q23 -240 51.5 -547.5t44.5 -483.5t19 -219q2 41 20 220.5t48 480.5t52 549h199l-201 -1686h-223q-102 1081 -104 1167q-2 -41 -117 -1167h-225z" />
<glyph unicode="X" horiz-adv-x="700" d="M8 0l232 901l-195 785h203q14 -86 39.5 -217.5t44 -225.5t20.5 -125q4 33 46 244t61 324h196l-198 -779l235 -907h-203q-27 141 -83 400t-62 302q-4 -39 -27.5 -150.5t-59.5 -277t-56 -274.5h-193z" />
<glyph unicode="Y" horiz-adv-x="684" d="M16 1686h199q27 -156 77 -396.5t54 -269.5q4 31 57.5 271.5t79.5 394.5h185l-234 -949v-737h-192v737z" />
<glyph unicode="Z" horiz-adv-x="632" d="M49 0v193l348 1308h-334v185h523v-170l-340 -1323h340v-193h-537z" />
<glyph unicode="[" horiz-adv-x="512" d="M150 -164v2013h321v-137h-186v-1739h186v-137h-321z" />
<glyph unicode="\" horiz-adv-x="495" d="M10 1686h140l335 -1686h-137z" />
<glyph unicode="]" horiz-adv-x="512" d="M150 -27h186v1739h-186v137h321v-2013h-321v137z" />
<glyph unicode="^" horiz-adv-x="653" d="M74 1077l168 609h172l166 -609h-136l-112 461l-123 -461h-135z" />
<glyph unicode="_" horiz-adv-x="620" d="M-2 -94h625v-127h-625v127z" />
<glyph unicode="`" horiz-adv-x="591" d="M74 1673h217l227 -330h-164z" />
<glyph unicode="a" horiz-adv-x="583" d="M43 182v187q0 86 21.5 148.5t70.5 106.5t91 67.5t122 58.5v286q0 80 -67 80q-41 0 -55.5 -19.5t-14.5 -60.5v-266h-150v268q0 250 224 250q227 0 227 -250v-929q0 -74 10 -109h-155q-8 25 -9 70q-49 -88 -141 -88q-174 -1 -174 200zM211 225q0 -78 70 -78q49 0 67 56v409 q-49 -18 -78.5 -39.5t-42 -58.5t-14.5 -65.5t-2 -92.5v-131z" />
<glyph unicode="b" horiz-adv-x="622" d="M74 0v1686h170v-457q49 59 133 59q94 0 139 -56t45 -177v-803q0 -264 -215 -264q-104 0 -160 94q-4 -35 -26 -82h-86zM244 227q23 -57 78 -57q70 0 69 80v786q0 74 -69 74q-55 0 -78 -55v-828z" />
<glyph unicode="c" horiz-adv-x="581" d="M61 240v786q0 121 59.5 191.5t176.5 70.5q115 0 170 -69.5t55 -190.5v-274h-155v278q0 80 -70 80t-70 -82v-790q0 -84 70 -84t70 84v278h159v-282q0 -119 -57 -186.5t-172 -67.5q-117 0 -176.5 69.5t-59.5 188.5z" />
<glyph unicode="d" horiz-adv-x="622" d="M61 227v828q0 121 45.5 177t139.5 56q84 0 133 -59v457h170v-1686h-143q-6 37 -7 82q-41 -94 -159 -94q-179 -1 -179 239zM231 250q0 -80 70 -80q55 0 78 57v832q-23 55 -78 55q-70 0 -70 -76v-788z" />
<glyph unicode="e" d="M61 238v790q0 260 224 260q229 0 229 -260v-418h-295v-372q0 -82 66 -82q70 0 69 84v276h160v-278q0 -256 -229 -256q-224 0 -224 256zM219 733h135v295q0 82 -69 82q-66 0 -66 -82v-295z" />
<glyph unicode="f" horiz-adv-x="391" d="M18 1118v150h62v176q0 252 199 252q53 0 94 -13v-145q-10 4 -41 4q-82 0 -82 -102v-172h119v-150h-119v-1118h-170v1118h-62z" />
<glyph unicode="g" horiz-adv-x="622" d="M61 291v749q0 240 179 240q109 0 159 -94q0 45 7 82h143v-1334q0 -240 -236 -239q-129 0 -182 60.5t-53 178.5v52h153v-60q0 -82 78 -82q76 0 76 82v193q-49 -59 -141 -60q-94 0 -138.5 55.5t-44.5 176.5zM229 299q0 -76 72 -76q57 0 84 56v761q-25 55 -84 56 q-72 0 -72 -74v-723z" />
<glyph unicode="h" horiz-adv-x="620" d="M74 0v1686h170v-469q59 72 151 71q160 0 160 -233v-1055h-172v1044q0 76 -61 76q-55 0 -78 -49v-1071h-170z" />
<glyph unicode="i" horiz-adv-x="323" d="M78 0v1268h170v-1268h-170zM78 1430v256h170v-256h-170z" />
<glyph unicode="j" horiz-adv-x="352" d="M-49 -117q27 -8 76 -8q78 0 77 98v1295h170v-1295q0 -268 -247 -268q-31 0 -76 8v170zM104 1430v256h170v-256h-170z" />
<glyph unicode="k" horiz-adv-x="614" d="M72 0v1686h168v-664q0 -199 -2 -293q84 266 182 539h176l-201 -553l207 -715h-186q-139 494 -178 643q2 -111 2 -340v-303h-168z" />
<glyph unicode="l" horiz-adv-x="317" d="M74 0v1686h170v-1686h-170z" />
<glyph unicode="m" horiz-adv-x="905" d="M74 0v1268h143q6 -37 6 -80q57 100 162 100q102 0 133 -94q57 94 166 94q154 0 154 -237v-1051h-170v1049q0 72 -56 71q-45 0 -71 -49v-1071h-170v1049q0 72 -58 71q-47 0 -69 -49v-1071h-170z" />
<glyph unicode="n" horiz-adv-x="620" d="M74 0v1268h143q6 -37 6 -82q61 102 170 102q162 0 162 -233v-1055h-172v1044q0 76 -61 76q-55 0 -78 -49v-1071h-170z" />
<glyph unicode="o" horiz-adv-x="595" d="M61 233v801q0 254 238 254q117 0 177.5 -65.5t60.5 -188.5v-801q0 -123 -60.5 -187t-177.5 -64q-238 -1 -238 251zM227 238q0 -82 72 -82q70 0 70 84v788q0 84 -70 84q-72 0 -72 -84v-790z" />
<glyph unicode="p" horiz-adv-x="622" d="M74 -285v1553h143q6 -39 6 -82q41 94 160 94q178 0 178 -240v-827q0 -121 -45 -176t-139 -55q-86 0 -133 57v-324h-170zM244 209q23 -55 78 -55q70 0 69 75v789q0 80 -69 80q-55 0 -78 -56v-833z" />
<glyph unicode="q" horiz-adv-x="622" d="M61 213v827q0 240 179 240q117 0 159 -94q0 43 7 82h143v-1553h-170v324q-47 -57 -133 -57q-94 0 -139.5 55t-45.5 176zM231 229q0 -76 70 -75q55 0 78 55v838q-23 55 -78 55q-70 0 -70 -80v-793z" />
<glyph unicode="r" horiz-adv-x="423" d="M74 0v1268h143q6 -37 6 -78q45 92 139 92q18 0 39 -8v-191q-23 14 -65 15q-68 0 -92 -56v-1042h-170z" />
<glyph unicode="s" horiz-adv-x="571" d="M51 223v201h156v-197q0 -78 72 -77q68 0 67 77v138q0 66 -39 116q-33 43 -101.5 118t-99.5 114q-55 72 -55 205v120q0 133 57.5 191.5t172.5 58.5q129 0 179 -58.5t50 -191.5v-200h-156v200q0 78 -69 78q-66 0 -66 -78v-139q0 -59 33 -102q31 -41 98.5 -111t95.5 -104 q41 -53 55.5 -105.5t14.5 -136.5v-125q0 -123 -59.5 -178t-182.5 -55q-223 -1 -223 241z" />
<glyph unicode="t" horiz-adv-x="391" d="M16 1118v150h62v401h172v-401h117v-150h-117v-872q0 -117 94 -117q18 0 27 2v-141q-23 -8 -64 -8q-113 0 -171 68.5t-58 193.5v874h-62z" />
<glyph unicode="u" horiz-adv-x="616" d="M68 205v1063h170v-1037q0 -76 59 -75q53 0 76 49v1063h172v-1268h-146q-6 37 -6 80q-57 -92 -166 -92q-76 0 -117.5 57.5t-41.5 159.5z" />
<glyph unicode="v" horiz-adv-x="569" d="M18 1268h172q18 -168 39 -354.5t32 -292t20 -193.5q12 109 45.5 379t56.5 461h164l-182 -1268h-170z" />
<glyph unicode="w" horiz-adv-x="864" d="M25 1268h157l68 -934l100 934h158l88 -934l84 934h158l-131 -1268h-201l-80 879l-88 -879h-199z" />
<glyph unicode="x" horiz-adv-x="585" d="M12 0l168 678l-143 590h178q57 -285 80 -451q25 182 82 451h170l-144 -588l170 -680h-176q-98 485 -108 561q-23 -166 -107 -561h-170z" />
<glyph unicode="y" horiz-adv-x="569" d="M18 1268h179q49 -455 86 -889q43 430 100 889h164l-172 -1221q-31 -186 -80 -264t-182 -78q-25 0 -76 10v170q27 -8 69 -8q39 0 57.5 33t29.5 102l4 27z" />
<glyph unicode="z" horiz-adv-x="526" d="M49 0v162l268 938h-264v168h426v-158l-260 -936h258v-174h-428z" />
<glyph unicode="{" horiz-adv-x="559" d="M31 844l155 194q31 37 31 99v430q0 283 291 282h16v-137h-14q-82 0 -120 -36t-38 -115v-416q0 -109 -59 -182l-96 -119l96 -121q59 -74 59 -184v-414q0 -80 38 -116t120 -36h14v-137h-16q-291 0 -291 281v432q0 61 -31 98z" />
<glyph unicode="|" horiz-adv-x="413" d="M137 -164v2013h137v-2013h-137z" />
<glyph unicode="}" horiz-adv-x="559" d="M31 -27h14q82 0 120 36t38 116v414q0 111 59 184l96 121l-96 119q-59 74 -59 182v416q0 80 -38 115.5t-120 35.5h-14v137h16q291 0 291 -282v-430q0 -61 31 -99l155 -194l-155 -197q-31 -37 -31 -98v-432q0 -281 -291 -281h-16v137z" />
<glyph unicode="~" horiz-adv-x="956" d="M74 733v168q78 78 205 78q84 0 206.5 -47t176.5 -47q129 0 225 102v-168q-94 -76 -232 -76q-68 0 -189.5 47.5t-180.5 47.5q-123 -1 -211 -105z" />
<glyph unicode="&#xa1;" horiz-adv-x="354" d="M80 0v748l39 612h119l36 -608v-752h-194zM80 1462v224h194v-224h-194z" />
<glyph unicode="&#xa2;" horiz-adv-x="577" d="M61 440v781q0 113 52.5 181t152.5 77v207h64v-207q193 -20 192 -256v-279h-137v281q0 31 -17.5 53t-43.5 25v-945q61 6 61 82v271h141v-275q0 -233 -196 -252v-184h-64v182q-100 8 -152.5 77.5t-52.5 180.5zM211 440q0 -76 63 -80v943q-63 -10 -63 -78v-785z" />
<glyph unicode="&#xa3;" horiz-adv-x="587" d="M39 -18v174q39 53 102 61q14 154 15 399v328h-111v143h111v293q0 156 65.5 240t188.5 84q70 0 104 -14v-174q-37 14 -68 14q-127 0 -127 -148v-295h195v-143h-195v-330q0 -250 -24 -430q8 -4 33.5 -15t47 -17.5t44.5 -6.5q80 0 121 62h8v-162q-43 -61 -135 -61 q-53 0 -130 37.5t-110 37.5q-72 0 -127 -77h-8z" />
<glyph unicode="&#xa4;" horiz-adv-x="1005" d="M31 428q6 8 35.5 37t62.5 60.5t37 35.5q-78 104 -78 240q0 129 78 239l-133 129l100 105l129 -137q102 80 240 80q135 0 241 -82l125 139l103 -105l-133 -129q80 -104 80 -239q0 -133 -80 -240l135 -133l-103 -102l-129 139q-115 -78 -239 -78q-133 0 -238 78l-133 -139z M244 800.5q0 -108.5 74.5 -183t183 -74.5t184.5 74.5t76 183.5q0 106 -76 182t-184.5 76t-183 -75t-74.5 -183.5z" />
<glyph unicode="&#xa5;" horiz-adv-x="700" d="M23 1686h200l131 -666l135 666h187l-242 -955v-84h223v-147h-223v-174h223v-148h-223v-178h-178v178h-223v148h223v174h-223v147h223v84z" />
<glyph unicode="&#xa6;" horiz-adv-x="413" d="M137 -164v826h137v-826h-137zM137 1024v825h137v-825h-137z" />
<glyph unicode="&#xa7;" horiz-adv-x="591" d="M51 698v144q0 166 111 211q-53 68 -74.5 119t-21.5 133v157q0 242 233 242q121 0 173 -58.5t52 -183.5v-207h-153v197q0 86 -68 86q-70 0 -70 -76v-155q0 -66 29 -101q29 -37 99.5 -121t105.5 -131q63 -86 63 -233v-143q0 -168 -110 -211q57 -78 76.5 -124t19.5 -128 v-158q0 -242 -233 -242q-121 0 -173.5 58.5t-52.5 183.5v207h154v-197q0 -86 68 -86q70 0 69 76v156q0 63 -28.5 100t-99 121t-105.5 131q-64 86 -64 233zM215 700q0 -82 51 -147l43 -55q33 4 45.5 22.5t12.5 57.5v141q0 86 -52 147l-45 54q-55 -4 -55 -78v-142z" />
<glyph unicode="&#xa8;" horiz-adv-x="628" d="M74 1368v256h170v-256h-170zM385 1368v256h172v-256h-172z" />
<glyph unicode="&#xa9;" horiz-adv-x="1067" d="M61 453v780q0 252 113 361.5t360.5 109.5t360.5 -109.5t113 -361.5v-780q0 -252 -113 -361.5t-360.5 -109.5t-360.5 109.5t-113 361.5zM188 436q0 -180 78 -256t268.5 -76t267.5 76t77 256v811q0 190 -76 263t-268 73q-195 0 -271 -72.5t-76 -263.5v-811zM365 489v721 q0 184 172 185q156 0 155 -183v-188h-108v188q0 61 -47 62q-49 0 -50 -62v-723q0 -59 50 -59q47 0 47 59v222h108v-219q0 -92 -37 -136.5t-118 -44.5q-172 0 -172 178z" />
<glyph unicode="&#xaa;" horiz-adv-x="444" d="M84 715v102q0 47 9 79t37 56.5t45.5 34.5t64.5 35v164q0 27 -25 26.5t-25 -26.5v-148h-96v148q0 137 123 137q129 0 129 -137v-512q0 -43 6 -60h-100q-4 10 -4 35q-29 -45 -72 -45q-92 0 -92 111zM193 735q0 -23 24 -22q16 0 23 16v205q-47 -29 -47 -74v-125z" />
<glyph unicode="&#xab;" horiz-adv-x="798" d="M37 586v194l325 217v-159l-235 -154l235 -162v-166zM436 586v194l326 217v-159l-236 -154l236 -162v-166z" />
<glyph unicode="&#xac;" horiz-adv-x="874" d="M39 766v180h762v-946h-176v766h-586z" />
<glyph unicode="&#xad;" horiz-adv-x="372" d="M25 776v146h327v-146h-327z" />
<glyph unicode="&#xae;" horiz-adv-x="1067" d="M59 453v780q0 252 113 361.5t360.5 109.5t360.5 -109.5t113 -361.5v-780q0 -252 -113 -361.5t-360.5 -109.5t-360.5 109.5t-113 361.5zM188 436q0 -180 78 -256t266 -76q193 0 270 75t77 257v811q0 188 -76 261t-270.5 73t-269.5 -72.5t-75 -261.5v-811zM367 322v1060 h163q96 0 141.5 -45t45.5 -147v-217q0 -121 -68 -154q37 -190 80 -497h-133q-35 305 -61 471h-48v-471h-120zM487 907h43q66 0 66 68v190q0 49 -13.5 72t-52.5 23h-43v-353z" />
<glyph unicode="&#xaf;" horiz-adv-x="624" d="M74 1421v148h479v-148h-479z" />
<glyph unicode="&#xb0;" horiz-adv-x="626" d="M61 1415q0 121 66 198t186.5 77t186 -77t65.5 -198t-65.5 -194.5t-186.5 -73.5q-123 0 -187.5 72.5t-64.5 195.5zM164 1415q0 -164 147 -164q143 0 144 164q0 168 -144 168q-147 0 -147 -168z" />
<glyph unicode="&#xb1;" horiz-adv-x="954" d="M72 236v141h811v-141h-811zM74 788v142h334v334h141v-334h336v-142h-336v-335h-141v335h-334z" />
<glyph unicode="&#xb2;" horiz-adv-x="380" d="M55 864v154q0 78 15.5 125t66.5 125q78 119 78 215v90q0 31 -24.5 31t-24.5 -31v-150h-111v148q0 76 33 110.5t102 34.5q137 0 138 -145v-103q0 -113 -84 -237q-49 -76 -63.5 -117t-14.5 -96v-43h162v-111h-273z" />
<glyph unicode="&#xb3;" horiz-adv-x="380" d="M53 997v166h113v-166q0 -31 24 -30q27 0 27 30v211q0 33 -27 33h-43v105h50q20 0 20 32v195q0 31 -27 31q-25 0 -24 -31v-152h-109v150q0 76 32 110.5t101.5 34.5t101.5 -34.5t32 -112.5v-191q0 -59 -50 -86q51 -18 52 -88v-207q0 -143 -136 -143q-66 0 -101.5 38.5 t-35.5 104.5z" />
<glyph unicode="&#xb4;" horiz-adv-x="591" d="M74 1343l225 330h219l-280 -330h-164z" />
<glyph unicode="&#xb5;" horiz-adv-x="622" d="M72 -285v1553h172v-1037q0 -76 57 -75q51 0 78 47v1065h170v-1268h-146q-4 25 -4 80q-43 -78 -155 -78v-287h-172z" />
<glyph unicode="&#xb6;" horiz-adv-x="884" d="M31 1450q0 106 51 171t160 65h608v-183h-123v-1777h-158v1777h-155v-1562q0 -104 -52.5 -172t-150.5 -68q-45 0 -90 14v131q27 -6 41 -6q49 0 69.5 22.5t20.5 80.5v1284h-16q-205 0 -205 223zM160 1409q0 -90 61 -90h31v184h-23q-69 0 -69 -94z" />
<glyph unicode="&#xb7;" horiz-adv-x="296" d="M61 717v256h177v-256h-177z" />
<glyph unicode="&#xb8;" horiz-adv-x="288" d="M74 -41h141v-180q0 -84 -90 -84h-35v57h29q23 0 22 25v35h-67v147z" />
<glyph unicode="&#xb9;" horiz-adv-x="270" d="M45 1536v109h21q37 0 36 41v20h101v-842h-111v672h-47z" />
<glyph unicode="&#xba;" horiz-adv-x="452" d="M92 743v441q0 139 133 139t133 -139v-441q0 -139 -133 -139t-133 139zM201 748q0 -31 24.5 -31t24.5 31v432q0 29 -24.5 28.5t-24.5 -28.5v-432z" />
<glyph unicode="&#xbb;" horiz-adv-x="798" d="M37 356v166l235 162l-235 154v159l325 -217v-194zM436 356v166l236 162l-236 154v159l326 -217v-194z" />
<glyph unicode="&#xbc;" horiz-adv-x="991" d="M57 0l752 1686h125l-750 -1686h-127zM137 1536v109h21q37 0 37 41v20h100v-842h-111v672h-47zM602 141v97l172 583h103v-573h41v-107h-41v-161h-103v161h-172zM700 248h74q0 137 6 291q-17 -86 -80 -291z" />
<glyph unicode="&#xbd;" horiz-adv-x="991" d="M57 0l752 1686h125l-750 -1686h-127zM137 1536v109h21q37 0 37 41v20h100v-842h-111v672h-47zM641 -20v153q0 78 15.5 125t66.5 125q78 119 78 215v90q0 31 -24.5 31t-24.5 -31v-149h-111v147q0 76 33 110.5t102 34.5q137 0 137 -145v-102q0 -113 -84 -238 q-49 -76 -63 -117t-14 -96v-43h161v-110h-272z" />
<glyph unicode="&#xbe;" horiz-adv-x="991" d="M57 0l752 1686h125l-750 -1686h-127zM96 997v166h113v-166q0 -31 24 -30q27 0 27 30v211q0 33 -27 33h-43v105h50q20 0 20 32v195q0 31 -27 31q-25 0 -24 -31v-152h-109v150q0 76 32 110.5t101.5 34.5t101.5 -34.5t32 -112.5v-191q0 -59 -50 -86q51 -18 52 -88v-207 q0 -143 -136 -143q-66 0 -101.5 38.5t-35.5 104.5zM561 141v97l172 583h103v-573h41v-107h-41v-161h-103v161h-172zM659 248h74q0 137 6 291q-17 -86 -80 -291z" />
<glyph unicode="&#xbf;" horiz-adv-x="614" d="M43 274v185q0 219 102 340q70 80 84.5 122t14.5 150v232h176v-228q0 -123 -21.5 -193.5t-79.5 -138.5q-61 -72 -75.5 -116.5t-14.5 -167.5v-189q0 -98 78 -98q80 0 80 96v299h180v-295q0 -150 -62.5 -220t-197.5 -70t-199.5 71t-64.5 221zM244 1430v256h176v-256h-176z " />
<glyph unicode="&#xc0;" horiz-adv-x="690" d="M20 0l220 1686h219l207 -1686h-191l-31 260h-206q-12 -88 -33 -260h-185zM20 2091h218l227 -330h-164zM256 434h168q-55 483 -82 766q-37 -391 -86 -766z" />
<glyph unicode="&#xc1;" horiz-adv-x="690" d="M20 0l220 1686h219l207 -1686h-191l-31 260h-206q-12 -88 -33 -260h-185zM225 1761l226 330h219l-281 -330h-164zM256 434h168q-55 483 -82 766q-37 -391 -86 -766z" />
<glyph unicode="&#xc2;" horiz-adv-x="690" d="M20 0l220 1686h219l207 -1686h-191l-31 260h-206q-12 -88 -33 -260h-185zM41 1761l209 330h201l198 -330h-166l-139 238l-145 -238h-158zM256 434h168q-55 483 -82 766q-37 -391 -86 -766z" />
<glyph unicode="&#xc3;" horiz-adv-x="690" d="M20 0l220 1686h219l207 -1686h-191l-31 260h-206q-12 -88 -33 -260h-185zM94 1821v145q45 53 127 53q51 0 130 -31.5t126 -31.5q74 0 115 57h2v-147q-47 -51 -127 -51q-49 0 -131 32.5t-125 32.5q-68 0 -115 -59h-2zM256 434h168q-55 483 -82 766q-37 -391 -86 -766z" />
<glyph unicode="&#xc4;" horiz-adv-x="690" d="M20 0l220 1686h219l207 -1686h-191l-31 260h-206q-12 -88 -33 -260h-185zM102 1786v256h170v-256h-170zM256 434h168q-55 483 -82 766q-37 -391 -86 -766zM414 1786v256h172v-256h-172z" />
<glyph unicode="&#xc5;" horiz-adv-x="690" d="M20 0l220 1686h219l207 -1686h-191l-31 260h-206q-12 -88 -33 -260h-185zM143 1927q0 74 51.5 119t147.5 45q98 0 150.5 -45t52.5 -119q0 -72 -52.5 -116t-150.5 -44q-96 0 -147.5 44t-51.5 116zM227 1927q0 -86 115 -86q113 0 113 86q0 90 -113 90q-115 0 -115 -90z M256 434h168q-55 483 -82 766q-37 -391 -86 -766z" />
<glyph unicode="&#xc6;" horiz-adv-x="956" d="M23 0l219 1686h667v-191h-264v-541h178v-190h-178v-576h273v-188h-465v262h-213l-33 -262h-184zM260 434h193v1061h-64z" />
<glyph unicode="&#xc7;" horiz-adv-x="634" d="M61 266v1147q0 291 273 291q250 0 250 -287v-299h-172v299q0 96 -78 96q-80 0 -80 -96v-1149q0 -98 80 -98q78 0 78 98v350h172v-348q0 -147 -60.5 -217.5t-189.5 -70.5q-273 -1 -273 284zM266 -41h142v-180q0 -84 -91 -84h-34v57h28q23 0 23 25v35h-68v147z" />
<glyph unicode="&#xc8;" d="M-27 2091h217l228 -330h-164zM74 0v1686h454v-191h-266v-541h178v-190h-178v-576h277v-188h-465z" />
<glyph unicode="&#xc9;" d="M74 0v1686h454v-191h-266v-541h178v-190h-178v-576h277v-188h-465zM168 1761l225 330h219l-280 -330h-164z" />
<glyph unicode="&#xca;" d="M-6 1761l209 330h200l199 -330h-166l-139 238l-145 -238h-158zM74 0v1686h454v-191h-266v-541h178v-190h-178v-576h277v-188h-465z" />
<glyph unicode="&#xcb;" d="M57 1786v256h170v-256h-170zM74 0v1686h454v-191h-266v-541h178v-190h-178v-576h277v-188h-465zM369 1786v256h172v-256h-172z" />
<glyph unicode="&#xcc;" horiz-adv-x="344" d="M-152 2091h218l227 -330h-164zM78 0v1686h188v-1686h-188z" />
<glyph unicode="&#xcd;" horiz-adv-x="344" d="M53 1761l226 330h219l-281 -330h-164zM78 0v1686h188v-1686h-188z" />
<glyph unicode="&#xce;" horiz-adv-x="344" d="M-131 1761l209 330h201l198 -330h-166l-139 238l-145 -238h-158zM78 0v1686h188v-1686h-188z" />
<glyph unicode="&#xcf;" horiz-adv-x="344" d="M-70 1786v256h170v-256h-170zM78 0v1686h188v-1686h-188zM242 1786v256h172v-256h-172z" />
<glyph unicode="&#xd0;" horiz-adv-x="667" d="M18 764v190h52v732h268q131 0 200.5 -76t69.5 -213v-1110q0 -287 -270 -287h-268v764h-52zM260 188h78q82 0 82 99v1112q0 96 -82 96h-78v-541h92v-190h-92v-576z" />
<glyph unicode="&#xd1;" horiz-adv-x="727" d="M68 0v1686h221q123 -692 211 -1145q-4 193 -4 571v574h161v-1686h-184q-51 231 -133 604t-115 526q4 -231 4 -694v-436h-161zM113 1821v145q45 53 127 53q51 0 130 -31.5t126 -31.5q74 0 114 57h2v-147q-47 -51 -127 -51q-51 0 -131 32.5t-125 32.5q-68 0 -114 -59h-2z " />
<glyph unicode="&#xd2;" horiz-adv-x="661" d="M6 2091h217l228 -330h-164zM61 268v1149q0 287 269 287q270 0 270 -287v-1149q0 -287 -270 -286q-269 -1 -269 286zM250 268q0 -98 80 -98q82 0 82 98v1149q0 96 -82 96q-80 0 -80 -96v-1149z" />
<glyph unicode="&#xd3;" horiz-adv-x="661" d="M61 268v1149q0 287 269 287q270 0 270 -287v-1149q0 -287 -270 -286q-269 -1 -269 286zM211 1761l225 330h219l-280 -330h-164zM250 268q0 -98 80 -98q82 0 82 98v1149q0 96 -82 96q-80 0 -80 -96v-1149z" />
<glyph unicode="&#xd4;" horiz-adv-x="661" d="M27 1761l209 330h200l199 -330h-166l-139 238l-146 -238h-157zM61 268v1149q0 287 269 287q270 0 270 -287v-1149q0 -287 -270 -286q-269 -1 -269 286zM250 268q0 -98 80 -98q82 0 82 98v1149q0 96 -82 96q-80 0 -80 -96v-1149z" />
<glyph unicode="&#xd5;" horiz-adv-x="661" d="M61 268v1149q0 287 269 287q270 0 270 -287v-1149q0 -287 -270 -286q-269 -1 -269 286zM80 1821v145q45 53 127 53q51 0 130 -31.5t126 -31.5q74 0 115 57h2v-147q-47 -51 -127 -51q-51 0 -131 32.5t-125 32.5q-68 0 -115 -59h-2zM250 268q0 -98 80 -98q82 0 82 98v1149 q0 96 -82 96q-80 0 -80 -96v-1149z" />
<glyph unicode="&#xd6;" horiz-adv-x="661" d="M61 268v1149q0 287 269 287q270 0 270 -287v-1149q0 -287 -270 -286q-269 -1 -269 286zM88 1786v256h170v-256h-170zM250 268q0 -98 80 -98q82 0 82 98v1149q0 96 -82 96q-80 0 -80 -96v-1149zM399 1786v256h172v-256h-172z" />
<glyph unicode="&#xd7;" horiz-adv-x="954" d="M141 623l238 235l-238 236l101 100l235 -236l238 238l100 -100l-237 -238l237 -237l-100 -101l-238 238l-235 -236z" />
<glyph unicode="&#xd8;" horiz-adv-x="661" d="M59 -193l58 261q-55 74 -56 200v1149q0 287 269 287q80 0 141 -29l45 203h84l-57 -260q57 -74 57 -201v-1149q0 -287 -270 -286q-82 0 -144 28l-45 -203h-82zM250 268q0 -98 80 -98q82 0 82 98v760l-162 -731v-29zM250 672l162 733v12q0 96 -82 96q-80 0 -80 -96v-745z " />
<glyph unicode="&#xd9;" horiz-adv-x="671" d="M12 2091h217l228 -330h-164zM68 268v1418h188v-1418q0 -98 80 -98t80 98v1418h188v-1418q0 -287 -268 -287t-268 287z" />
<glyph unicode="&#xda;" horiz-adv-x="671" d="M68 268v1418h188v-1418q0 -98 80 -98t80 98v1418h188v-1418q0 -287 -268 -287t-268 287zM215 1761l225 330h219l-280 -330h-164z" />
<glyph unicode="&#xdb;" horiz-adv-x="671" d="M33 1761l209 330h200l199 -330h-166l-139 238l-146 -238h-157zM68 268v1418h188v-1418q0 -98 80 -98t80 98v1418h188v-1418q0 -287 -268 -287t-268 287z" />
<glyph unicode="&#xdc;" horiz-adv-x="671" d="M68 268v1418h188v-1418q0 -98 80 -98t80 98v1418h188v-1418q0 -287 -268 -287t-268 287zM94 1786v256h170v-256h-170zM406 1786v256h172v-256h-172z" />
<glyph unicode="&#xdd;" horiz-adv-x="684" d="M16 1686h199q27 -156 77 -396.5t54 -269.5q4 31 57.5 271.5t79.5 394.5h185l-234 -949v-737h-192v737zM223 1761l226 330h219l-281 -330h-164z" />
<glyph unicode="&#xde;" horiz-adv-x="673" d="M74 0v1686h188v-300h84q297 0 297 -303v-518q0 -147 -74.5 -225t-220.5 -78h-86v-262h-188zM262 451h86q104 0 105 114v518q0 113 -107 113h-84v-745z" />
<glyph unicode="&#xdf;" horiz-adv-x="675" d="M74 0v1452q0 252 237 252q117 0 176.5 -64.5t59.5 -187.5v-420q0 -92 -55 -123q129 -37 129 -207v-460q0 -135 -53.5 -197.5t-176.5 -62.5q-47 0 -72 8l3 170q23 -6 55 -6q41 0 58.5 20.5t17.5 67.5v467q0 86 -76 86h-82v163h29q57 0 57 74v414q0 84 -70 84 q-72 0 -71 -84v-1446h-166z" />
<glyph unicode="&#xe0;" horiz-adv-x="583" d="M-33 1673h217l228 -330h-164zM43 182v187q0 86 21.5 148.5t70.5 106.5t91 67.5t122 58.5v286q0 80 -67 80q-41 0 -55.5 -19.5t-14.5 -60.5v-266h-150v268q0 250 224 250q227 0 227 -250v-929q0 -74 10 -109h-155q-8 25 -9 70q-49 -88 -141 -88q-174 -1 -174 200zM211 225 q0 -78 70 -78q49 0 67 56v409q-49 -18 -78.5 -39.5t-42 -58.5t-14.5 -65.5t-2 -92.5v-131z" />
<glyph unicode="&#xe1;" horiz-adv-x="583" d="M43 182v187q0 86 21.5 148.5t70.5 106.5t91 67.5t122 58.5v286q0 80 -67 80q-41 0 -55.5 -19.5t-14.5 -60.5v-266h-150v268q0 250 224 250q227 0 227 -250v-929q0 -74 10 -109h-155q-8 25 -9 70q-49 -88 -141 -88q-174 -1 -174 200zM172 1343l225 330h219l-280 -330h-164 zM211 225q0 -78 70 -78q49 0 67 56v409q-49 -18 -78.5 -39.5t-42 -58.5t-14.5 -65.5t-2 -92.5v-131z" />
<glyph unicode="&#xe2;" horiz-adv-x="583" d="M-12 1343l209 330h200l199 -330h-166l-139 238l-146 -238h-157zM43 182v187q0 86 21.5 148.5t70.5 106.5t91 67.5t122 58.5v286q0 80 -67 80q-41 0 -55.5 -19.5t-14.5 -60.5v-266h-150v268q0 250 224 250q227 0 227 -250v-929q0 -74 10 -109h-155q-8 25 -9 70 q-49 -88 -141 -88q-174 -1 -174 200zM211 225q0 -78 70 -78q49 0 67 56v409q-49 -18 -78.5 -39.5t-42 -58.5t-14.5 -65.5t-2 -92.5v-131z" />
<glyph unicode="&#xe3;" horiz-adv-x="583" d="M43 182v187q0 86 21.5 148.5t70.5 106.5t91 67.5t122 58.5v286q0 80 -67 80q-41 0 -55.5 -19.5t-14.5 -60.5v-266h-150v268q0 250 224 250q227 0 227 -250v-929q0 -74 10 -109h-155q-8 25 -9 70q-49 -88 -141 -88q-174 -1 -174 200zM43 1403v145q45 53 127 54 q51 0 130 -32t126 -32q74 0 115 57h2v-147q-47 -51 -127 -51q-51 0 -131 32.5t-125 32.5q-68 0 -115 -59h-2zM211 225q0 -78 70 -78q49 0 67 56v409q-49 -18 -78.5 -39.5t-42 -58.5t-14.5 -65.5t-2 -92.5v-131z" />
<glyph unicode="&#xe4;" horiz-adv-x="583" d="M43 182v187q0 86 21.5 148.5t70.5 106.5t91 67.5t122 58.5v286q0 80 -67 80q-41 0 -55.5 -19.5t-14.5 -60.5v-266h-150v268q0 250 224 250q227 0 227 -250v-929q0 -74 10 -109h-155q-8 25 -9 70q-49 -88 -141 -88q-174 -1 -174 200zM51 1368v256h170v-256h-170zM211 225 q0 -78 70 -78q49 0 67 56v409q-49 -18 -78.5 -39.5t-42 -58.5t-14.5 -65.5t-2 -92.5v-131zM362 1368v256h173v-256h-173z" />
<glyph unicode="&#xe5;" horiz-adv-x="583" d="M43 182v187q0 86 21.5 148.5t70.5 106.5t91 67.5t122 58.5v286q0 80 -67 80q-41 0 -55.5 -19.5t-14.5 -60.5v-266h-150v268q0 250 224 250q227 0 227 -250v-929q0 -74 10 -109h-155q-8 25 -9 70q-49 -88 -141 -88q-174 -1 -174 200zM90 1509q0 74 51.5 119t147.5 45 q98 0 150.5 -45t52.5 -119q0 -72 -52.5 -115.5t-150.5 -43.5q-96 0 -147.5 43.5t-51.5 115.5zM174 1509q0 -86 115 -86q113 0 112 86q0 90 -112 90q-115 0 -115 -90zM211 225q0 -78 70 -78q49 0 67 56v409q-49 -18 -78.5 -39.5t-42 -58.5t-14.5 -65.5t-2 -92.5v-131z" />
<glyph unicode="&#xe6;" horiz-adv-x="868" d="M43 182v187q0 86 21.5 148.5t70.5 106.5t91 67.5t122 58.5v288q0 78 -67 78q-70 0 -70 -78v-268h-150v268q0 250 224 250q96 0 149 -47q53 47 144 47q229 0 229 -260v-418h-295v-379q0 -76 66 -75q70 0 69 82v278h160v-278q0 -256 -229 -256q-121 0 -177 94 q-49 -94 -174 -94q-184 -1 -184 200zM211 250q0 -53 14.5 -78t55.5 -25q49 0 67 56v409q-49 -18 -78.5 -39.5t-42 -58.5t-14.5 -65.5t-2 -92.5v-106zM512 733h135v295q0 82 -69 82q-66 0 -66 -82v-295z" />
<glyph unicode="&#xe7;" horiz-adv-x="581" d="M61 240v786q0 121 59.5 191.5t176.5 70.5q115 0 170 -69.5t55 -190.5v-274h-155v278q0 80 -70 80t-70 -82v-790q0 -84 70 -84t70 84v278h159v-282q0 -119 -57 -186.5t-172 -67.5q-117 0 -176.5 69.5t-59.5 188.5zM229 -41h142v-180q0 -84 -90 -84h-35v57h28q23 0 23 25 v35h-68v147z" />
<glyph unicode="&#xe8;" d="M-37 1673h217l228 -330h-164zM61 238v790q0 260 224 260q229 0 229 -260v-418h-295v-372q0 -82 66 -82q70 0 69 84v276h160v-278q0 -256 -229 -256q-224 0 -224 256zM219 733h135v295q0 82 -69 82q-66 0 -66 -82v-295z" />
<glyph unicode="&#xe9;" d="M61 238v790q0 260 224 260q229 0 229 -260v-418h-295v-372q0 -82 66 -82q70 0 69 84v276h160v-278q0 -256 -229 -256q-224 0 -224 256zM168 1343l225 330h219l-280 -330h-164zM219 733h135v295q0 82 -69 82q-66 0 -66 -82v-295z" />
<glyph unicode="&#xea;" d="M-16 1343l209 330h200l199 -330h-166l-139 238l-146 -238h-157zM61 238v790q0 260 224 260q229 0 229 -260v-418h-295v-372q0 -82 66 -82q70 0 69 84v276h160v-278q0 -256 -229 -256q-224 0 -224 256zM219 733h135v295q0 82 -69 82q-66 0 -66 -82v-295z" />
<glyph unicode="&#xeb;" d="M47 1368v256h170v-256h-170zM61 238v790q0 260 224 260q229 0 229 -260v-418h-295v-372q0 -82 66 -82q70 0 69 84v276h160v-278q0 -256 -229 -256q-224 0 -224 256zM219 733h135v295q0 82 -69 82q-66 0 -66 -82v-295zM358 1368v256h172v-256h-172z" />
<glyph unicode="&#xec;" horiz-adv-x="348" d="M-137 1673h217l227 -330h-164zM102 0v1268h170v-1268h-170z" />
<glyph unicode="&#xed;" horiz-adv-x="380" d="M43 1343l225 330h219l-280 -330h-164zM78 0v1268h170v-1268h-170z" />
<glyph unicode="&#xee;" horiz-adv-x="493" d="M-57 1343l209 330h200l199 -330h-166l-139 238l-146 -238h-157zM162 0v1268h170v-1268h-170z" />
<glyph unicode="&#xef;" horiz-adv-x="389" d="M-49 1368v256h170v-256h-170zM109 0v1268h170v-1268h-170zM262 1368v256h172v-256h-172z" />
<glyph unicode="&#xf0;" horiz-adv-x="661" d="M61 274v541q0 250 228 250q92 0 137 -66v197q0 119 -23 190l-190 -233l-63 55l206 256q-45 43 -149 49v191q178 0 270 -92l88 106l64 -55l-99 -121q70 -125 70 -371v-897q0 -141 -68.5 -216.5t-201.5 -75.5t-201 75.5t-68 216.5zM250 281q0 -111 80 -111t80 98v535 q-14 76 -76 76q-84 0 -84 -97v-501z" />
<glyph unicode="&#xf1;" horiz-adv-x="620" d="M61 1403v145q45 53 127 54q51 0 130 -32t126 -32q74 0 115 57h2v-147q-47 -51 -127 -51q-49 0 -131 32.5t-125 32.5q-68 0 -115 -59h-2zM74 0v1268h143q6 -37 6 -82q61 102 170 102q162 0 162 -233v-1055h-172v1044q0 76 -61 76q-55 0 -78 -49v-1071h-170z" />
<glyph unicode="&#xf2;" horiz-adv-x="595" d="M-27 1673h217l228 -330h-164zM61 233v801q0 254 238 254q117 0 177.5 -65.5t60.5 -188.5v-801q0 -123 -60.5 -187t-177.5 -64q-238 -1 -238 251zM227 238q0 -82 72 -82q70 0 70 84v788q0 84 -70 84q-72 0 -72 -84v-790z" />
<glyph unicode="&#xf3;" horiz-adv-x="595" d="M61 233v801q0 254 238 254q117 0 177.5 -65.5t60.5 -188.5v-801q0 -123 -60.5 -187t-177.5 -64q-238 -1 -238 251zM178 1343l225 330h220l-281 -330h-164zM227 238q0 -82 72 -82q70 0 70 84v788q0 84 -70 84q-72 0 -72 -84v-790z" />
<glyph unicode="&#xf4;" horiz-adv-x="595" d="M-6 1343l209 330h200l199 -330h-166l-139 238l-145 -238h-158zM61 233v801q0 254 238 254q117 0 177.5 -65.5t60.5 -188.5v-801q0 -123 -60.5 -187t-177.5 -64q-238 -1 -238 251zM227 238q0 -82 72 -82q70 0 70 84v788q0 84 -70 84q-72 0 -72 -84v-790z" />
<glyph unicode="&#xf5;" horiz-adv-x="595" d="M49 1403v145q45 53 127 54q51 0 130 -32t126 -32q74 0 115 57h2v-147q-47 -51 -127 -51q-49 0 -131 32.5t-125 32.5q-68 0 -115 -59h-2zM61 233v801q0 254 238 254q117 0 177.5 -65.5t60.5 -188.5v-801q0 -123 -60.5 -187t-177.5 -64q-238 -1 -238 251zM227 238 q0 -82 72 -82q70 0 70 84v788q0 84 -70 84q-72 0 -72 -84v-790z" />
<glyph unicode="&#xf6;" horiz-adv-x="595" d="M57 1368v256h170v-256h-170zM61 233v801q0 254 238 254q117 0 177.5 -65.5t60.5 -188.5v-801q0 -123 -60.5 -187t-177.5 -64q-238 -1 -238 251zM227 238q0 -82 72 -82q70 0 70 84v788q0 84 -70 84q-72 0 -72 -84v-790zM369 1368v256h172v-256h-172z" />
<glyph unicode="&#xf7;" horiz-adv-x="954" d="M74 788v142h811v-142h-811zM389 369v256h176v-256h-176zM389 1094v256h176v-256h-176z" />
<glyph unicode="&#xf8;" horiz-adv-x="595" d="M59 -193l58 242q-55 66 -56 184v801q0 254 238 254q61 0 109 -18l45 190h82l-58 -239q59 -66 60 -187v-801q0 -123 -60.5 -187t-177.5 -64q-57 0 -113 18l-45 -193h-82zM227 514l133 561q-12 37 -61 37q-72 0 -72 -84v-514zM233 193q12 -37 66 -37q70 0 70 84v522z" />
<glyph unicode="&#xf9;" horiz-adv-x="616" d="M-16 1673h217l227 -330h-164zM68 205v1063h170v-1037q0 -76 59 -75q53 0 76 49v1063h172v-1268h-146q-6 37 -6 80q-57 -92 -166 -92q-76 0 -117.5 57.5t-41.5 159.5z" />
<glyph unicode="&#xfa;" horiz-adv-x="616" d="M68 205v1063h170v-1037q0 -76 59 -75q53 0 76 49v1063h172v-1268h-146q-6 37 -6 80q-57 -92 -166 -92q-76 0 -117.5 57.5t-41.5 159.5zM188 1343l226 330h219l-281 -330h-164z" />
<glyph unicode="&#xfb;" horiz-adv-x="616" d="M4 1343l209 330h201l198 -330h-166l-139 238l-145 -238h-158zM68 205v1063h170v-1037q0 -76 59 -75q53 0 76 49v1063h172v-1268h-146q-6 37 -6 80q-57 -92 -166 -92q-76 0 -117.5 57.5t-41.5 159.5z" />
<glyph unicode="&#xfc;" horiz-adv-x="616" d="M68 205v1063h170v-1037q0 -76 59 -75q53 0 76 49v1063h172v-1268h-146q-6 37 -6 80q-57 -92 -166 -92q-76 0 -117.5 57.5t-41.5 159.5zM68 1368v256h170v-256h-170zM379 1368v256h172v-256h-172z" />
<glyph unicode="&#xfd;" horiz-adv-x="569" d="M18 1268h179q49 -455 86 -889q43 430 100 889h164l-172 -1221q-31 -186 -80 -264t-182 -78q-25 0 -76 10v170q27 -8 69 -8q39 0 57.5 33t29.5 102l4 27zM164 1343l225 330h219l-280 -330h-164z" />
<glyph unicode="&#xfe;" horiz-adv-x="622" d="M74 -285v1971h170v-457q49 59 133 59q94 0 139 -56t45 -177v-842q0 -121 -45 -176t-139 -55q-86 0 -133 57v-324h-170zM244 213q20 -53 78 -53q70 0 69 76v796q0 78 -69 78q-55 0 -78 -55v-842z" />
<glyph unicode="&#xff;" horiz-adv-x="569" d="M18 1268h179q49 -455 86 -889q43 430 100 889h164l-172 -1221q-31 -186 -80 -264t-182 -78q-25 0 -76 10v170q27 -8 69 -8q39 0 57.5 33t29.5 102l4 27zM43 1368v256h170v-256h-170zM354 1368v256h172v-256h-172z" />
<glyph unicode="&#x152;" horiz-adv-x="892" d="M61 268v1149q0 287 269 287q68 0 112 -18h404v-191h-266v-541h178v-190h-178v-576h276v-188h-414q-45 -18 -112 -18q-269 -1 -269 286zM250 268q0 -98 80 -98q29 0 61 8v1327q-23 8 -61 8q-80 0 -80 -96v-1149z" />
<glyph unicode="&#x153;" horiz-adv-x="890" d="M61 233v801q0 254 238 254q96 0 154 -51q57 51 147 51q231 0 231 -260v-418h-294v-372q0 -82 63 -82q70 0 70 84v276h161v-278q0 -256 -231 -256q-92 0 -149 47q-53 -47 -152 -47q-238 -1 -238 251zM227 238q0 -82 72 -82q70 0 70 84v788q0 84 -70 84q-72 0 -72 -84v-790 zM537 733h133v295q0 82 -70 82q-63 0 -63 -82v-295z" />
<glyph unicode="&#x178;" horiz-adv-x="684" d="M16 1686h199q27 -156 77 -396.5t54 -269.5q4 31 57.5 271.5t79.5 394.5h185l-234 -949v-737h-192v737zM100 1786v256h170v-256h-170zM412 1786v256h172v-256h-172z" />
<glyph unicode="&#x2c6;" horiz-adv-x="792" d="M92 1343l209 330h201l198 -330h-165l-140 238l-145 -238h-158z" />
<glyph unicode="&#x2dc;" horiz-adv-x="645" d="M72 1403v145q45 53 127 54q51 0 130 -32t126 -32q74 0 114 57h2v-147q-47 -51 -127 -51q-51 0 -131 32.5t-125 32.5q-68 0 -114 -59h-2z" />
<glyph unicode="&#x3bc;" horiz-adv-x="622" d="M72 -285v1553h172v-1037q0 -76 57 -75q51 0 78 47v1065h170v-1268h-146q-4 25 -4 80q-43 -78 -155 -78v-287h-172z" />
<glyph unicode="&#x2000;" horiz-adv-x="1044" />
<glyph unicode="&#x2001;" horiz-adv-x="2091" />
<glyph unicode="&#x2002;" horiz-adv-x="1044" />
<glyph unicode="&#x2003;" horiz-adv-x="2091" />
<glyph unicode="&#x2004;" horiz-adv-x="696" />
<glyph unicode="&#x2005;" horiz-adv-x="522" />
<glyph unicode="&#x2006;" horiz-adv-x="348" />
<glyph unicode="&#x2007;" horiz-adv-x="348" />
<glyph unicode="&#x2008;" horiz-adv-x="260" />
<glyph unicode="&#x2009;" horiz-adv-x="417" />
<glyph unicode="&#x200a;" horiz-adv-x="114" />
<glyph unicode="&#x2010;" horiz-adv-x="372" d="M25 776v146h327v-146h-327z" />
<glyph unicode="&#x2011;" horiz-adv-x="372" d="M25 776v146h327v-146h-327z" />
<glyph unicode="&#x2012;" horiz-adv-x="372" d="M25 776v146h327v-146h-327z" />
<glyph unicode="&#x2013;" horiz-adv-x="573" d="M25 776v146h526v-146h-526z" />
<glyph unicode="&#x2014;" horiz-adv-x="905" d="M25 776v146h860v-146h-860z" />
<glyph unicode="&#x2018;" horiz-adv-x="299" d="M61 1321v250q0 59 33 95t101 36h20v-78h-20q-37 0 -37 -41v-51h80v-211h-177z" />
<glyph unicode="&#x2019;" horiz-adv-x="299" d="M61 1475v211h177v-248q0 -133 -134 -133h-20v77h18q39 0 39 43v50h-80z" />
<glyph unicode="&#x201a;" horiz-adv-x="313" d="M70 45v211h176v-248q0 -59 -33 -96t-100 -37h-21v78h19q39 0 39 43v49h-80z" />
<glyph unicode="&#x201c;" horiz-adv-x="598" d="M61 1321v250q0 59 33 95t101 36h20v-78h-20q-37 0 -37 -41v-51h80v-211h-177zM360 1321v250q0 59 33 95t101 36h20v-78h-20q-37 0 -37 -41v-51h80v-211h-177z" />
<glyph unicode="&#x201d;" horiz-adv-x="598" d="M61 1475v211h177v-248q0 -133 -134 -133h-20v77h18q39 0 39 43v50h-80zM360 1475v211h177v-248q0 -133 -134 -133h-20v77h18q39 0 39 43v50h-80z" />
<glyph unicode="&#x201e;" horiz-adv-x="626" d="M70 45v211h176v-248q0 -59 -33 -96t-100 -37h-21v78h19q39 0 39 43v49h-80zM383 45v211h176v-248q0 -59 -32.5 -96t-100.5 -37h-20v78h18q39 0 39 43v49h-80z" />
<glyph unicode="&#x2022;" horiz-adv-x="430" d="M61 963q0 76 42 126t114 50q70 0 112 -50.5t42 -125.5q0 -78 -42 -128.5t-112 -50.5q-72 0 -114 50.5t-42 128.5z" />
<glyph unicode="&#x2026;" horiz-adv-x="1484" d="M61 0v256h177v-256h-177zM655 0v256h176v-256h-176zM1249 0v256h176v-256h-176z" />
<glyph unicode="&#x202f;" horiz-adv-x="417" />
<glyph unicode="&#x2039;" horiz-adv-x="399" d="M37 586v194l325 217v-159l-235 -154l235 -162v-166z" />
<glyph unicode="&#x203a;" horiz-adv-x="399" d="M37 356v166l235 162l-235 154v159l325 -217v-194z" />
<glyph unicode="&#x205f;" horiz-adv-x="522" />
<glyph unicode="&#x20ac;" horiz-adv-x="706" d="M16 594l23 143h74v240h-97l23 145h74v254q0 172 80.5 250t281.5 78q115 0 213 -10l-31 -191q-86 12 -176 13q-109 0 -143.5 -31t-34.5 -109v-254h295l-25 -145h-270v-240h236l-25 -143h-211v-330q0 -41 23.5 -69.5t64.5 -28.5q53 0 71.5 33.5t18.5 109.5v117h187v-158 q0 -287 -277 -286q-279 0 -278 286v326h-97z" />
<glyph unicode="&#x2122;" horiz-adv-x="999" d="M51 1595v91h326v-91h-105v-688h-116v688h-105zM449 907v779h153q49 -362 84 -576q61 410 84 576h156v-779h-107v226q0 154 6 303l-88 -529h-100l-88 529q6 -301 6 -303v-226h-106z" />
<glyph unicode="&#xe000;" horiz-adv-x="1270" d="M0 1270h1270v-1270h-1270v1270z" />
<glyph unicode="&#xfb01;" horiz-adv-x="714" d="M18 1118v150h62v176q0 252 199 252q53 0 94 -13v-145q-10 4 -41 4q-82 0 -82 -102v-172h119v-150h-119v-1118h-170v1118h-62zM469 0v1268h170v-1268h-170zM469 1430v256h170v-256h-170z" />
<glyph unicode="&#xfb02;" horiz-adv-x="708" d="M18 1118v150h62v176q0 252 199 252q53 0 94 -13v-145q-10 4 -41 4q-82 0 -82 -102v-172h119v-150h-119v-1118h-170v1118h-62zM465 0v1686h170v-1686h-170z" />
<glyph unicode="&#xfb03;" horiz-adv-x="1105" d="M860 0v1268h170v-1268h-170zM860 1430v256h170v-256h-170zM409 1118v150h62v176q0 252 199 252q53 0 94 -13v-145q-10 4 -41 4q-82 0 -82 -102v-172h119v-150h-119v-1118h-170v1118h-62zM18 1118v150h62v176q0 252 199 252q53 0 94 -13v-145q-10 4 -41 4q-82 0 -82 -102 v-172h119v-150h-119v-1118h-170v1118h-62z" />
<glyph unicode="&#xfb04;" horiz-adv-x="1099" d="M856 0v1686h170v-1686h-170zM409 1118v150h62v176q0 252 199 252q53 0 94 -13v-145q-10 4 -41 4q-82 0 -82 -102v-172h119v-150h-119v-1118h-170v1118h-62zM18 1118v150h62v176q0 252 199 252q53 0 94 -13v-145q-10 4 -41 4q-82 0 -82 -102v-172h119v-150h-119v-1118 h-170v1118h-62z" />
</font>
</defs>
</svg>
