<?xml version="1.0" standalone="no"?>
<!DOCTYPE svg PUBLIC "-//W3C//DTD SVG 1.1//EN" "http://www.w3.org/Graphics/SVG/1.1/DTD/svg11.dtd" >
<svg xmlns="http://www.w3.org/2000/svg">
<metadata>
This is a custom SVG webfont generated by Font Squirrel.
Copyright   : c 20012011 Typodermic Fonts design Ray Larabie kerning  languages Chikako Larabie license agreement typodermicfontscompageslicense
Designer    : Ray Larabie
Foundry     : Ray Larabie
</metadata>
<defs>
<font id="SteelfishExtraBold" horiz-adv-x="370" >
<font-face units-per-em="2048" ascent="1743" descent="-305" />
<missing-glyph horiz-adv-x="278" />
<glyph unicode=" "  horiz-adv-x="278" />
<glyph unicode="&#x09;" horiz-adv-x="278" />
<glyph unicode="&#xa0;" horiz-adv-x="278" />
<glyph unicode="!" horiz-adv-x="378" d="M76 0v223h227v-223h-227zM76 844v842h227v-838l-45 -522h-139z" />
<glyph unicode="&#x22;" horiz-adv-x="628" d="M57 1489v197h199v-197l-43 -270h-113zM373 1489v197h198v-197l-43 -270h-112z" />
<glyph unicode="#" horiz-adv-x="831" d="M37 580v190h141l29 193h-133v190h162l77 533h146l-82 -533h166l78 533h143l-80 -533h111v-190h-140l-28 -193h129v-190h-158l-86 -580h-141l88 580h-168l-86 -580h-139l86 580h-115zM319 770h166l29 193h-166z" />
<glyph unicode="$" horiz-adv-x="587" d="M57 299v319h168v-337q0 -51 45 -60v504l-71 80q-90 98 -116 162.5t-26 179.5v242q0 254 203 276v115h64v-115q203 -18 202 -276v-271h-164v289q0 49 -49 59v-493l78 -78q86 -90 112.5 -158.5t26.5 -214.5v-223q0 -258 -206 -281v-124h-64v126q-203 21 -203 279zM225 1141 q0 -72 45 -127v452q-45 -10 -45 -59v-266zM313 221q43 6 43 60v258q0 78 -43 141v-459z" />
<glyph unicode="%" horiz-adv-x="991" d="M57 0l752 1686h125l-750 -1686h-127zM63 997v576q0 143 142 143q139 0 139 -143v-576q0 -143 -139 -143q-142 0 -142 143zM174 995q0 -31 31 -30q29 0 28 30v580q0 31 -28 31q-31 0 -31 -31v-580zM645 113v575q0 143 141 143q139 0 140 -143v-575q0 -143 -140 -144 q-141 1 -141 144zM756 111q0 -31 30 -31q29 0 29 31v579q0 31 -29 31q-31 0 -30 -31v-579z" />
<glyph unicode="&#x26;" horiz-adv-x="786" d="M49 332v186q0 94 33 180t125 211q-66 178 -83.5 254t-17.5 170v97q0 150 57.5 212t186.5 62q227 0 228 -270v-129q0 -98 -31 -177t-131 -243l157 -443q8 74 9 133v50h170v-60q0 -199 -84 -356q8 -6 26 -6q41 0 64 18v-207q-45 -23 -105 -22q-68 0 -110 53 q-57 -63 -203 -63q-166 0 -228.5 83t-62.5 267zM266 338q0 -147 94 -148q72 0 99 31l-166 461q-27 -68 -27 -150v-194zM297 1348q4 -150 43 -258q59 111 59 258v71q0 68 -49 68q-53 0 -53 -68v-71z" />
<glyph unicode="'" horiz-adv-x="313" d="M57 1489v197h199v-197l-43 -270h-113z" />
<glyph unicode="(" horiz-adv-x="524" d="M145 190v1305q0 184 79 269t243 85h18v-159h-18q-162 0 -162 -195v-1305q0 -195 162 -194h18v-160h-18q-164 0 -243 85t-79 269z" />
<glyph unicode=")" horiz-adv-x="524" d="M145 -4h19q162 0 162 194v1305q0 195 -162 195h-19v159h19q164 0 242.5 -85t78.5 -269v-1305q0 -184 -78.5 -269t-242.5 -85h-19v160z" />
<glyph unicode="*" horiz-adv-x="649" d="M25 1419l41 125l206 -82l-16 224h135l-16 -224l207 86l41 -127l-217 -55l143 -170l-105 -80l-120 191l-117 -191l-107 78l142 172z" />
<glyph unicode="+" horiz-adv-x="962" d="M70 776v166h329v328h166v-328h330v-166h-330v-332h-166v332h-329z" />
<glyph unicode="," horiz-adv-x="321" d="M57 45v211h207v-231q0 -66 -39 -109t-116 -43h-27v88h27q43 0 43 49v35h-95z" />
<glyph unicode="-" d="M20 764v170h334v-170h-334z" />
<glyph unicode="." horiz-adv-x="321" d="M57 0v256h207v-256h-207z" />
<glyph unicode="/" horiz-adv-x="497" d="M6 0l322 1686h161l-321 -1686h-162z" />
<glyph unicode="0" horiz-adv-x="677" d="M57 268v1149q0 287 283 287q281 0 281 -287v-1149q0 -287 -281 -286q-283 -1 -283 286zM281 264q0 -63 59 -63t59 63v1157q0 63 -59 63.5t-59 -63.5v-1157z" />
<glyph unicode="1" horiz-adv-x="417" d="M29 1343v218h43q74 0 73 84v41h199v-1686h-221v1343h-94z" />
<glyph unicode="2" horiz-adv-x="638" d="M49 0v307q0 156 31 250t133 250q86 135 122 226t36 204v180q0 63 -52 64q-49 0 -49 -64v-299h-221v295q0 154 65.5 222.5t204.5 68.5q274 0 275 -291v-205q0 -221 -166 -475q-100 -152 -128 -233.5t-28 -192.5v-84h322v-223h-545z" />
<glyph unicode="3" horiz-adv-x="641" d="M47 266v332h225v-330q0 -63 50 -63q53 0 53 63v422q0 63 -53 64h-86v211h96q41 0 41 63v389q0 63 -51 64q-49 0 -50 -64v-301h-219v297q0 154 64.5 222.5t204 68.5t203 -69.5t63.5 -223.5v-383q0 -119 -99 -170q102 -37 103 -176v-414q0 -133 -67.5 -209.5t-202.5 -76.5 q-133 0 -204 76.5t-71 207.5z" />
<glyph unicode="4" horiz-adv-x="661" d="M14 326v192l342 1168h207v-1149h82v-211h-82v-326h-207v326h-342zM211 537h145q0 342 15 581q-31 -153 -160 -581z" />
<glyph unicode="5" horiz-adv-x="651" d="M57 801l23 885h508v-224h-307l-17 -444q47 51 148 51q186 0 186 -260v-545q0 -283 -266 -282q-272 0 -273 282v354h220v-350q0 -63 51 -63q53 0 53 63v547q0 57 -59 57q-66 0 -76 -79z" />
<glyph unicode="6" horiz-adv-x="659" d="M57 266v1151q0 135 70 211t205 76q264 0 264 -287v-291h-213v291q0 63 -51 63.5t-51 -63.5v-407q63 49 131 49q102 0 148 -60.5t46 -199.5v-531q0 -135 -69.5 -210.5t-204.5 -75.5t-205 74.5t-70 209.5zM281 268q0 -63 51 -63t51 63v514q0 63 -51 64q-39 0 -51 -37v-541z " />
<glyph unicode="7" horiz-adv-x="595" d="M23 1462v224h550v-207q-236 -535 -239 -1479h-223q0 268 24.5 514t58 407.5t71.5 288.5t63.5 184.5t36.5 67.5h-342z" />
<glyph unicode="8" horiz-adv-x="649" d="M51 266v412q0 145 103 196q-84 55 -84 179v364q0 287 254 287t254 -287v-364q0 -123 -84 -179q102 -51 102 -196v-412q0 -285 -272.5 -285t-272.5 285zM272 268q0 -63 51.5 -63t51.5 63v426q0 61 -51.5 61.5t-51.5 -61.5v-426zM272 1024q0 -61 51.5 -61t51.5 61v393 q0 63 -51.5 63.5t-51.5 -63.5v-393z" />
<glyph unicode="9" horiz-adv-x="657" d="M53 913v504q0 137 68.5 212t204 75t205 -75t69.5 -210v-1151q0 -135 -69.5 -210.5t-204.5 -75.5q-127 0 -199 76.5t-72 209.5v291h219v-291q0 -63 52 -63q49 0 49 63v434q-59 -49 -129 -49q-102 0 -147.5 60.5t-45.5 199.5zM274 942q0 -66 52 -65q41 0 49 38v502 q0 63 -49 64q-51 0 -52 -64v-475z" />
<glyph unicode=":" horiz-adv-x="321" d="M57 0v256h207v-256h-207zM57 750v254h207v-254h-207z" />
<glyph unicode=";" horiz-adv-x="321" d="M57 45v211h207v-231q0 -66 -39 -109t-116 -43h-27v88h27q43 0 43 49v35h-95zM57 750v254h207v-254h-207z" />
<glyph unicode="&#x3c;" horiz-adv-x="962" d="M70 756v202l825 234v-166l-655 -164l655 -174v-166z" />
<glyph unicode="=" horiz-adv-x="962" d="M70 584v168h825v-168h-825zM70 967v168h825v-168h-825z" />
<glyph unicode="&#x3e;" horiz-adv-x="962" d="M70 522v166l655 174l-655 164v166l825 -234v-202z" />
<glyph unicode="?" horiz-adv-x="616" d="M43 1118v295q0 150 63.5 220.5t200.5 70.5t204 -71.5t67 -221.5v-194q0 -215 -105 -340q-66 -76 -79 -117t-13 -146v-231h-207v227q0 125 19.5 197t72.5 133q63 76 77.5 118t14.5 161v198q0 63 -51 63.5t-51 -63.5v-299h-213zM174 0v256h207v-256h-207z" />
<glyph unicode="@" horiz-adv-x="1075" d="M53 299v715q0 252 115 361.5t367 109.5q240 0 351 -104.5t111 -327.5v-617q0 -111 -60 -171t-149 -60q-123 0 -167 74q-27 -63 -119 -64q-162 0 -162 186v451q0 117 41 163t121 46t106 -70q0 27 4 60h107v-678q20 -25 61 -25q70 0 70 80v629q0 256 -315 256 q-164 0 -237 -74t-73 -219v-725q0 -178 83 -252t257 -74q305 0 309 135q0 18 -2 25h144q4 -16 4 -37q2 -137 -101.5 -220t-379.5 -83q-238 0 -362 117t-124 393zM487 410q0 -55 56 -56q29 0 45 31v485q-14 33 -45 33q-55 0 -56 -59v-434z" />
<glyph unicode="A" horiz-adv-x="694" d="M18 0l205 1686h258l193 -1686h-223l-25 240h-164l-29 -240h-215zM283 442h118q-39 426 -57 672q-24 -342 -61 -672z" />
<glyph unicode="B" horiz-adv-x="671" d="M70 0v1686h278q137 0 197.5 -72t60.5 -225v-349q0 -133 -78 -168q41 -12 70 -56t29 -111v-420q0 -147 -70 -216t-209 -69h-278zM293 223h55q51 0 51 64v411q0 63 -49 64h-57v-539zM293 956h57q49 0 49 64v379q0 63 -51 63h-55v-506z" />
<glyph unicode="C" horiz-adv-x="636" d="M57 266v1147q0 291 279 291q254 0 254 -287v-299h-203v299q0 63 -51 63.5t-51 -63.5v-1149q0 -63 51 -63t51 63v350h203v-348q0 -150 -60.5 -219t-193.5 -69q-279 -1 -279 284z" />
<glyph unicode="D" horiz-adv-x="673" d="M70 0v1686h272q135 0 204.5 -76t69.5 -213v-1110q0 -287 -274 -287h-272zM293 223h49q53 0 53 64v1112q0 63 -53 63h-49v-1239z" />
<glyph unicode="E" horiz-adv-x="577" d="M70 0v1686h462v-224h-239v-491h151v-223h-151v-525h250v-223h-473z" />
<glyph unicode="F" horiz-adv-x="557" d="M70 0v1686h473v-224h-250v-499h153v-224h-153v-739h-223z" />
<glyph unicode="G" horiz-adv-x="665" d="M57 268v1147q0 139 70 214t207 75q264 0 264 -289v-297h-201v299q0 63 -63 64q-53 0 -53 -64v-1149q0 -63 51 -63q63 0 63 63v330h-71v213h286v-821h-22l-72 67q-57 -76 -199 -75q-260 -1 -260 286z" />
<glyph unicode="H" horiz-adv-x="686" d="M70 0v1686h223v-715h102v715h221v-1686h-221v748h-102v-748h-223z" />
<glyph unicode="I" d="M74 0v1686h223v-1686h-223z" />
<glyph unicode="J" horiz-adv-x="444" d="M14 -2v221q35 -6 88 -6q55 0 56 74v1399h223v-1399q0 -299 -279 -299q-43 0 -88 10z" />
<glyph unicode="K" horiz-adv-x="722" d="M70 0v1686h223v-336q0 -276 -6 -371q35 174 176 707h237l-223 -752l244 -934h-254q-102 430 -180 803q6 -119 6 -438v-365h-223z" />
<glyph unicode="L" horiz-adv-x="561" d="M70 0v1686h223v-1463h250v-223h-473z" />
<glyph unicode="M" horiz-adv-x="937" d="M66 0v1686h294q100 -1083 105 -1174q14 188 108 1174h299v-1686h-202v475q0 297 12 592q-10 -117 -121 -1067h-188l-117 1067q12 -295 12 -594v-473h-202z" />
<glyph unicode="N" horiz-adv-x="731" d="M66 0v1686h256q78 -496 163 -1055q-6 178 -6 528v527h187v-1686h-213q-156 743 -207 1032q6 -199 6 -598v-434h-186z" />
<glyph unicode="O" horiz-adv-x="663" d="M57 268v1149q0 287 274.5 287t274.5 -287v-1149q0 -287 -274.5 -287t-274.5 287zM281 268q0 -63 51 -63t51 63v1149q0 63 -51 63.5t-51 -63.5v-1149z" />
<glyph unicode="P" horiz-adv-x="665" d="M70 0v1686h272q152 0 224.5 -75t72.5 -231v-276q0 -158 -71.5 -230.5t-223.5 -72.5h-51v-801h-223zM293 1018h51q76 0 76 78v286q0 80 -78 80h-49v-444z" />
<glyph unicode="Q" horiz-adv-x="663" d="M57 299v1118q0 287 274.5 287t274.5 -287v-1118q0 -252 -211 -285q6 -39 94 -39q78 0 117 37v-168q-45 -41 -141 -41q-104 0 -157.5 59.5t-55.5 155.5q-195 39 -195 281zM281 287q0 -63 51 -63.5t51 63.5v1130q0 63 -51 63.5t-51 -63.5v-1130z" />
<glyph unicode="R" horiz-adv-x="681" d="M70 0v1686h266q154 0 227.5 -71t73.5 -233v-348q0 -180 -96 -237q49 -301 110 -797h-243q-45 506 -78 752h-37v-752h-223zM293 954h45q74 0 74 78v350q0 80 -76 80h-43v-508z" />
<glyph unicode="S" horiz-adv-x="641" d="M49 260v358h213v-358q0 -55 53 -55q55 0 56 55v240q0 63 -29 112.5t-135 186.5q-84 109 -121 191.5t-37 185.5v251q0 276 273 277q141 0 202.5 -67.5t61.5 -209.5v-309h-205v309q0 53 -53.5 53.5t-53.5 -53.5v-249q0 -14 1 -26.5t5.5 -26l7.5 -22.5t13 -26.5t16.5 -27 t22.5 -32t25.5 -34.5t33 -43t37.5 -49q90 -119 123 -200t33 -189v-242q0 -279 -270 -278q-273 -1 -273 278z" />
<glyph unicode="T" horiz-adv-x="585" d="M18 1462v224h549v-224h-161v-1462h-224v1462h-164z" />
<glyph unicode="U" horiz-adv-x="673" d="M63 268v1418h224v-1418q0 -63 51 -63t51 63v1418h221v-1418q0 -287 -272 -286q-275 -1 -275 286z" />
<glyph unicode="V" horiz-adv-x="700" d="M18 1686h232q86 -969 100 -1301q25 401 111 1301h221l-190 -1686h-297z" />
<glyph unicode="W" horiz-adv-x="1099" d="M18 1686h234q72 -1040 80 -1176q12 178 119 1176h198q90 -987 103 -1176q6 156 96 1176h233l-188 -1686h-258q-88 944 -92 1085q-8 -168 -103 -1085h-260z" />
<glyph unicode="X" horiz-adv-x="704" d="M4 0l217 903l-178 783h238q57 -336 75 -531q25 213 76 531h232l-187 -777l223 -909h-239q-84 451 -115 674q-20 -195 -115 -674h-227z" />
<glyph unicode="Y" horiz-adv-x="688" d="M12 1686h236q88 -524 102 -639q25 162 109 639h217l-223 -967v-719h-226v719z" />
<glyph unicode="Z" horiz-adv-x="634" d="M45 0v227l326 1241h-310v218h531v-201l-316 -1258h316v-227h-547z" />
<glyph unicode="[" horiz-adv-x="518" d="M145 -164v2013h334v-159h-174v-1694h174v-160h-334z" />
<glyph unicode="\" horiz-adv-x="497" d="M6 1686h162l321 -1686h-161z" />
<glyph unicode="]" horiz-adv-x="518" d="M145 -4h174v1694h-174v159h334v-2013h-334v160z" />
<glyph unicode="^" horiz-adv-x="663" d="M70 1114l161 572h201l162 -572h-158l-98 402l-109 -402h-159z" />
<glyph unicode="_" horiz-adv-x="630" d="M-2 -74h635v-147h-635v147z" />
<glyph unicode="`" horiz-adv-x="618" d="M29 1673h256l223 -330h-193z" />
<glyph unicode="a" horiz-adv-x="585" d="M41 182v187q0 109 30.5 172t96.5 110q63 43 158 90v297q0 49 -45 49t-45 -49v-268h-177v268q0 250 226 250q233 0 233 -250v-932q0 -76 10 -106h-182q-8 25 -8 63q-47 -82 -131 -81q-166 -1 -166 200zM238 219q0 -41 45 -41q29 0 43 31v371q-31 -12 -52 -33 q-37 -31 -36 -98v-230z" />
<glyph unicode="b" horiz-adv-x="624" d="M70 0v1686h200v-435q43 37 113 37q184 0 184 -233v-795q0 -270 -221 -270q-92 0 -147 80q-10 -37 -33 -70h-96zM270 233q16 -29 47 -28q49 0 50 53v770q0 51 -50 51q-31 0 -47 -28v-818z" />
<glyph unicode="c" horiz-adv-x="583" d="M57 240v786q0 121 60.5 191.5t179.5 70.5q117 0 173 -69.5t56 -190.5v-274h-182v278q0 49 -45 49t-45 -49v-792q0 -53 45 -53.5t45 53.5v278h186v-282q0 -119 -58 -186.5t-175 -67.5q-119 0 -179.5 69.5t-60.5 188.5z" />
<glyph unicode="d" horiz-adv-x="624" d="M57 229v826q0 233 185 233q70 0 112 -37v435h201v-1686h-170q-6 31 -6 70q-35 -80 -146 -80q-82 0 -129 62t-47 177zM258 258q0 -53 49 -53q31 0 47 28v824q-14 27 -47 26q-49 0 -49 -49v-776z" />
<glyph unicode="e" horiz-adv-x="575" d="M57 238v790q0 260 228 260q233 0 233 -260v-428h-274v-362q0 -51 41 -52q45 0 45 54v276h188v-278q0 -256 -233 -256q-228 0 -228 256zM244 743h86v285q0 51 -45 51q-41 0 -41 -51v-285z" />
<glyph unicode="f" horiz-adv-x="391" d="M14 1094v174h64v176q0 252 203 252q55 0 94 -13v-170q-6 2 -29 3q-68 0 -67 -76v-172h92v-174h-92v-1094h-201v1094h-64z" />
<glyph unicode="g" horiz-adv-x="624" d="M57 291v747q0 115 47.5 177.5t128.5 62.5q98 0 146 -80q0 39 6 70h170v-1334q0 -240 -240 -239q-131 0 -185 59.5t-54 179.5v52h180v-62q0 -55 53 -55q51 0 51 55v172q-43 -37 -120 -37q-183 1 -183 232zM256 303q0 -51 53 -51q35 0 51 29v753q-16 29 -51 29 q-53 0 -53 -53v-707z" />
<glyph unicode="h" horiz-adv-x="622" d="M70 0v1686h200v-451q57 53 136 53q154 0 153 -233v-1055h-201v1042q0 49 -41 50q-29 0 -47 -21v-1071h-200z" />
<glyph unicode="i" horiz-adv-x="346" d="M74 0v1268h200v-1268h-200zM74 1430v256h200v-256h-200z" />
<glyph unicode="j" d="M-33 -88q29 -6 78 -6q51 0 51 67v1295h201v-1295q0 -268 -252 -268q-33 0 -78 8v199zM96 1430v256h201v-256h-201z" />
<glyph unicode="k" horiz-adv-x="614" d="M70 0v1686h196v-648q0 -205 -4 -301q20 90 74 293l61 238h205l-156 -545l162 -723h-219l-70 334q-37 174 -57 303q4 -102 4 -313v-324h-196z" />
<glyph unicode="l" horiz-adv-x="339" d="M70 0v1686h200v-1686h-200z" />
<glyph unicode="m" horiz-adv-x="911" d="M70 0v1268h170q6 -31 6 -68q59 88 155 88q94 0 131 -80q57 80 160 80q156 0 156 -244v-1044h-201v1042q0 49 -41 50q-27 0 -47 -21v-1071h-201v1042q0 49 -41 50q-29 0 -47 -21v-1071h-200z" />
<glyph unicode="n" horiz-adv-x="622" d="M70 0v1268h170q6 -31 6 -68q59 88 155 88q158 0 158 -233v-1055h-201v1042q0 49 -41 50q-29 0 -47 -21v-1071h-200z" />
<glyph unicode="o" horiz-adv-x="598" d="M57 233v801q0 254 242 254t242 -254v-801q0 -123 -61.5 -187t-180.5 -64q-242 -1 -242 251zM254 242q0 -55 45 -55.5t45 55.5v784q0 55 -45 55t-45 -55v-784z" />
<glyph unicode="p" horiz-adv-x="624" d="M70 -285v1553h170q6 -35 6 -70q35 80 145 80q82 0 129 -62.5t47 -177.5v-825q0 -231 -184 -231q-72 0 -113 34v-301h-200zM270 211q14 -27 47 -27q49 0 50 49v779q0 53 -50 53q-31 0 -47 -29v-825z" />
<glyph unicode="q" horiz-adv-x="624" d="M57 213v825q0 115 47.5 177.5t128.5 62.5q111 0 146 -80q0 35 6 70h170v-1553h-201v301q-41 -35 -112 -34q-185 0 -185 231zM258 233q0 -49 49 -49q33 0 47 27v829q-16 29 -47 29q-49 0 -49 -53v-783z" />
<glyph unicode="r" horiz-adv-x="423" d="M70 0v1268h170q6 -31 6 -66q39 80 123 80q23 0 34 -6v-225q-23 16 -65 16q-53 0 -68 -35v-1032h-200z" />
<glyph unicode="s" horiz-adv-x="573" d="M49 229v195h182v-191q0 -53 48 -53q43 0 43 53v132q0 49 -23 89t-106 138q-78 92 -111 161.5t-33 182.5v96q0 137 58.5 196.5t173.5 59.5q135 0 185 -59.5t50 -196.5v-194h-182v196q0 53 -47 53q-41 0 -41 -53v-131q0 -57 24.5 -98t110.5 -135.5t113.5 -160t27.5 -175.5 v-115q0 -125 -61.5 -181t-186.5 -56q-225 -1 -225 247z" />
<glyph unicode="t" horiz-adv-x="391" d="M14 1094v174h64v401h201v-401h92v-174h-92v-846q0 -92 96 -92v-170q-41 -4 -62 -4q-236 0 -235 262v850h-64z" />
<glyph unicode="u" horiz-adv-x="618" d="M63 203v1065h201v-1032q0 -49 39 -50q27 0 45 21v1061h201v-1268h-170q-6 31 -6 68q-55 -78 -152 -78q-74 0 -116 57.5t-42 155.5z" />
<glyph unicode="v" horiz-adv-x="571" d="M16 1268h201q61 -612 66 -762q10 141 77 762h193l-172 -1268h-199z" />
<glyph unicode="w" horiz-adv-x="870" d="M20 1268h185q49 -731 55 -885l84 885h178q68 -791 72 -885q4 70 72 885h182l-123 -1268h-231q-61 731 -66 817q-2 -104 -72 -817h-229z" />
<glyph unicode="x" horiz-adv-x="587" d="M8 0l154 680l-127 588h209q37 -248 53 -426q31 264 57 426h199l-129 -584l156 -684h-207q-57 344 -84 547q-6 -92 -80 -547h-201z" />
<glyph unicode="y" horiz-adv-x="571" d="M16 1268h209q53 -582 62 -824q8 156 75 824h191l-166 -1241q-23 -170 -80 -246t-194 -76q-33 0 -78 8v199q31 -6 69 -6q41 0 58.5 35.5t23.5 109.5z" />
<glyph unicode="z" horiz-adv-x="526" d="M45 0v190l248 881h-244v197h434v-187l-237 -876h235v-205h-436z" />
<glyph unicode="{" horiz-adv-x="581" d="M27 844l159 194q33 41 33 99v415q0 297 316 297h16v-159h-14q-160 0 -160 -148v-407q0 -104 -66 -185l-88 -106l88 -109q66 -80 66 -184v-408q0 -147 160 -147h14v-160h-16q-315 0 -316 297v416q0 57 -33 98z" />
<glyph unicode="|" horiz-adv-x="430" d="M133 -164v2013h162v-2013h-162z" />
<glyph unicode="}" horiz-adv-x="581" d="M27 -4h14q160 0 160 147v408q0 104 65 184l88 109l-88 106q-66 80 -65 185v407q0 147 -160 148h-14v159h16q315 0 315 -297v-415q0 -57 33 -99l160 -194l-160 -197q-33 -41 -33 -98v-416q0 -297 -315 -297h-16v160z" />
<glyph unicode="~" horiz-adv-x="964" d="M70 717v196q84 72 211 72q86 0 208.5 -43t176.5 -43q131 0 231 100v-194q-96 -70 -240 -70q-68 0 -190.5 43t-179.5 43q-123 0 -217 -104z" />
<glyph unicode="&#xa1;" horiz-adv-x="378" d="M76 0v838l45 522h139l43 -518v-842h-227zM76 1462v224h227v-224h-227z" />
<glyph unicode="&#xa2;" horiz-adv-x="579" d="M57 442v779q0 113 53.5 181t157.5 77v207h64v-207q195 -20 194 -256v-279h-159v283q0 16 -13.5 30.5t-31.5 14.5v-881q45 4 45 51v269h163v-273q0 -233 -198 -252v-186h-64v184q-102 8 -156.5 77.5t-54.5 180.5zM233 442q0 -49 46 -49v879q-45 -4 -46 -45v-785z" />
<glyph unicode="&#xa3;" horiz-adv-x="589" d="M35 -18v204q39 45 104 58q12 162 13 420v268h-111v168h111v282q0 154 67.5 238t192.5 84q59 0 106 -12v-207q-35 14 -63 14q-49 0 -81 -37t-32 -78v-284h176v-168h-176v-270q0 -291 -20 -463q61 -25 88 -25q76 0 135 70h10v-201q-57 -59 -152 -59q-43 0 -118.5 35.5 t-112.5 35.5q-74 0 -129 -73h-8z" />
<glyph unicode="&#xa4;" horiz-adv-x="1021" d="M27 434l137 133q-72 104 -72 234q0 125 72 235q-70 66 -135 129l118 121l129 -139q98 76 236 76q129 0 236 -76l124 139l119 -121l-133 -129q74 -106 74 -235t-74 -234l135 -133l-119 -121l-129 142q-115 -74 -233 -74q-129 0 -233 74l-134 -142zM274 801q0 -100 69 -169 t169 -69q98 0 168 68.5t70 169.5q0 98 -70 167.5t-168 69.5q-100 0 -169 -69.5t-69 -167.5z" />
<glyph unicode="&#xa5;" horiz-adv-x="704" d="M18 1686h236q74 -426 104 -639q12 92 107 639h219l-231 -975v-54h213v-168h-213v-153h213v-168h-213v-168h-209v168h-213v168h213v153h-213v168h213v54z" />
<glyph unicode="&#xa6;" horiz-adv-x="430" d="M133 -164v846h162v-846h-162zM133 1004v845h162v-845h-162z" />
<glyph unicode="&#xa7;" horiz-adv-x="593" d="M57 -45v184h185v-184q0 -47 45 -47q47 0 47 47v82q0 55 -24.5 98t-116.5 158q-74 96 -105 166.5t-31 158.5v216q0 88 45 138t115 56q-49 63 -75.5 105.5t-49 108t-22.5 132.5v92q0 238 233 238q119 0 173 -58.5t54 -179.5v-143h-176v143q0 45 -45 45q-47 0 -47 -45v-90 q0 -12 1 -23.5t4 -22.5t6 -19t11.5 -22.5t13.5 -23t19.5 -27.5t21.5 -29.5t27.5 -37t32.5 -43.5q80 -102 109 -171.5t29 -163.5v-207q0 -90 -39 -149.5t-103 -69.5q74 -98 101.5 -167t27.5 -161v-84q0 -240 -233.5 -240t-233.5 240zM252 565q0 -47 45 -47t45 47v254 q0 47 -45 47t-45 -47v-254z" />
<glyph unicode="&#xa8;" horiz-adv-x="657" d="M70 1368v256h200v-256h-200zM387 1368v256h201v-256h-201z" />
<glyph unicode="&#xa9;" horiz-adv-x="1077" d="M57 453v780q0 252 115 361.5t367 109.5t366.5 -109.5t114.5 -361.5v-780q0 -252 -114.5 -361.5t-366.5 -109.5t-367 109.5t-115 361.5zM207 434q0 -170 72.5 -239.5t259 -69.5t259 69.5t72.5 239.5v817q0 178 -71.5 245t-259.5 67q-190 0 -261 -66.5t-71 -245.5v-817z M367 489v721q0 184 174 185q160 0 159 -183v-188h-127v188q0 41 -32 41q-31 0 -31 -41v-723q0 -39 31 -38q33 0 32 38v222h127v-219q0 -180 -159 -181q-174 0 -174 178z" />
<glyph unicode="&#xaa;" horiz-adv-x="444" d="M84 715v102q0 47 9 79t37 56.5t45.5 34.5t64.5 35v164q0 27 -25 26.5t-25 -26.5v-148h-96v148q0 137 123 137q129 0 129 -137v-512q0 -43 6 -60h-100q-4 10 -4 35q-29 -45 -72 -45q-92 0 -92 111zM193 735q0 -23 24 -22q16 0 23 16v205q-47 -29 -47 -74v-125z" />
<glyph unicode="&#xab;" horiz-adv-x="794" d="M33 565v236l332 205v-187l-226 -135l226 -143v-195zM430 565v236l332 205v-187l-225 -135l225 -143v-195z" />
<glyph unicode="&#xac;" horiz-adv-x="890" d="M35 733v213h786v-946h-207v733h-579z" />
<glyph unicode="&#xad;" d="M20 764v170h334v-170h-334z" />
<glyph unicode="&#xae;" horiz-adv-x="1077" d="M57 453v780q0 252 115 361.5t367 109.5t366.5 -109.5t114.5 -361.5v-780q0 -252 -114.5 -361.5t-366.5 -109.5t-367 109.5t-115 361.5zM207 434q0 -170 72.5 -239.5t259 -69.5t259 69.5t72.5 239.5v817q0 178 -71.5 245t-259.5 67q-190 0 -261 -66.5t-71 -245.5v-817z M369 322v1060h168q96 0 142 -45t46 -145v-221q0 -115 -59 -152q29 -166 69 -497h-153q-29 315 -50 469h-22v-469h-141zM510 924h27q47 0 47 49v219q0 49 -47 49h-27v-317z" />
<glyph unicode="&#xaf;" horiz-adv-x="626" d="M70 1409v172h487v-172h-487z" />
<glyph unicode="&#xb0;" horiz-adv-x="628" d="M57 1415q0 121 66.5 198t189.5 77t190.5 -77t67.5 -198t-66.5 -194.5t-191.5 -73.5t-190.5 72.5t-65.5 195.5zM176 1415q0 -78 33 -112.5t102 -34.5q72 0 102.5 34.5t30.5 112.5q0 80 -31.5 116t-101.5 36q-135 0 -135 -152z" />
<glyph unicode="&#xb1;" horiz-adv-x="962" d="M70 182v166h825v-166h-825zM70 776v166h329v328h166v-328h330v-166h-330v-332h-166v332h-329z" />
<glyph unicode="&#xb2;" horiz-adv-x="380" d="M55 864v154q0 78 15.5 125t66.5 125q78 119 78 215v90q0 31 -24.5 31t-24.5 -31v-150h-111v148q0 76 33 110.5t102 34.5q137 0 138 -145v-103q0 -113 -84 -237q-49 -76 -63.5 -117t-14.5 -96v-43h162v-111h-273z" />
<glyph unicode="&#xb3;" horiz-adv-x="380" d="M53 997v166h113v-166q0 -31 24 -30q27 0 27 30v211q0 33 -27 33h-43v105h50q20 0 20 32v195q0 31 -27 31q-25 0 -24 -31v-152h-109v150q0 76 32 110.5t101.5 34.5t101.5 -34.5t32 -112.5v-191q0 -59 -50 -86q51 -18 52 -88v-207q0 -143 -136 -143q-66 0 -101.5 38.5 t-35.5 104.5z" />
<glyph unicode="&#xb4;" horiz-adv-x="618" d="M111 1343l223 330h256l-287 -330h-192z" />
<glyph unicode="&#xb5;" horiz-adv-x="624" d="M70 -285v1553h200v-1032q0 -49 39 -50q25 0 45 21v1061h201v-1268h-170q-6 31 -6 68q-43 -61 -109 -74v-279h-200z" />
<glyph unicode="&#xb6;" horiz-adv-x="903" d="M29 1448q0 106 52 172t163 66h628v-213h-124v-1747h-185v1747h-135v-1532q0 -104 -53 -172t-154 -68q-45 0 -90 14v152q25 -4 33 -4q43 0 59.5 27.5t16.5 91.5v1239q-211 0 -211 227zM178 1401q0 -68 41 -68h21v140h-21q-41 0 -41 -72z" />
<glyph unicode="&#xb7;" horiz-adv-x="321" d="M57 717v256h207v-256h-207z" />
<glyph unicode="&#xb8;" horiz-adv-x="305" d="M70 -41h166v-176q0 -88 -101 -88h-47v63h41q23 0 23 25v29h-82v147z" />
<glyph unicode="&#xb9;" horiz-adv-x="270" d="M45 1536v109h21q37 0 36 41v20h101v-842h-111v672h-47z" />
<glyph unicode="&#xba;" horiz-adv-x="452" d="M92 743v441q0 139 133 139t133 -139v-441q0 -139 -133 -139t-133 139zM201 748q0 -31 24.5 -31t24.5 31v432q0 29 -24.5 28.5t-24.5 -28.5v-432z" />
<glyph unicode="&#xbb;" horiz-adv-x="794" d="M33 346v195l225 143l-225 135v187l332 -205v-236zM430 346v195l225 143l-225 135v187l332 -205v-236z" />
<glyph unicode="&#xbc;" horiz-adv-x="991" d="M57 0l752 1686h125l-750 -1686h-127zM137 1536v109h21q37 0 37 41v20h100v-842h-111v672h-47zM602 141v97l172 583h103v-573h41v-107h-41v-161h-103v161h-172zM700 248h74q0 137 6 291q-17 -86 -80 -291z" />
<glyph unicode="&#xbd;" horiz-adv-x="991" d="M57 0l752 1686h125l-750 -1686h-127zM137 1536v109h21q37 0 37 41v20h100v-842h-111v672h-47zM641 -20v153q0 78 15.5 125t66.5 125q78 119 78 215v90q0 31 -24.5 31t-24.5 -31v-149h-111v147q0 76 33 110.5t102 34.5q137 0 137 -145v-102q0 -113 -84 -238 q-49 -76 -63 -117t-14 -96v-43h161v-110h-272z" />
<glyph unicode="&#xbe;" horiz-adv-x="991" d="M57 0l752 1686h125l-750 -1686h-127zM96 997v166h113v-166q0 -31 24 -30q27 0 27 30v211q0 33 -27 33h-43v105h50q20 0 20 32v195q0 31 -27 31q-25 0 -24 -31v-152h-109v150q0 76 32 110.5t101.5 34.5t101.5 -34.5t32 -112.5v-191q0 -59 -50 -86q51 -18 52 -88v-207 q0 -143 -136 -143q-66 0 -101.5 38.5t-35.5 104.5zM561 141v97l172 583h103v-573h41v-107h-41v-161h-103v161h-172zM659 248h74q0 137 6 291q-17 -86 -80 -291z" />
<glyph unicode="&#xbf;" horiz-adv-x="616" d="M43 274v195q0 215 104 340q66 76 79.5 117t13.5 145v232h206v-228q0 -125 -19 -196.5t-73 -133.5q-63 -76 -77.5 -117.5t-14.5 -160.5v-199q0 -63 51.5 -63t51.5 63v299h213v-295q0 -150 -63.5 -220t-201 -70t-204 71t-66.5 221zM240 1430v256h206v-256h-206z" />
<glyph unicode="&#xc0;" horiz-adv-x="694" d="M4 2091h256l223 -330h-192zM18 0l205 1686h258l193 -1686h-223l-25 240h-164l-29 -240h-215zM283 442h118q-39 426 -57 672q-24 -342 -61 -672z" />
<glyph unicode="&#xc1;" horiz-adv-x="694" d="M18 0l205 1686h258l193 -1686h-223l-25 240h-164l-29 -240h-215zM209 1761l223 330h256l-287 -330h-192zM283 442h118q-39 426 -57 672q-24 -342 -61 -672z" />
<glyph unicode="&#xc2;" horiz-adv-x="694" d="M18 0l205 1686h258l193 -1686h-223l-25 240h-164l-29 -240h-215zM39 1761l199 330h235l186 -330h-194l-117 224l-125 -224h-184zM283 442h118q-39 426 -57 672q-24 -342 -61 -672z" />
<glyph unicode="&#xc3;" horiz-adv-x="694" d="M18 0l205 1686h258l193 -1686h-223l-25 240h-164l-29 -240h-215zM92 1815v165q45 49 129 50q51 0 133 -30t129 -30q80 0 113 53h4v-168q-49 -49 -129 -49q-51 0 -135 32t-127 32q-70 0 -113 -55h-4zM283 442h118q-39 426 -57 672q-24 -342 -61 -672z" />
<glyph unicode="&#xc4;" horiz-adv-x="694" d="M18 0l205 1686h258l193 -1686h-223l-25 240h-164l-29 -240h-215zM88 1786v256h201v-256h-201zM283 442h118q-39 426 -57 672q-24 -342 -61 -672zM406 1786v256h200v-256h-200z" />
<glyph unicode="&#xc5;" horiz-adv-x="694" d="M18 0l205 1686h258l193 -1686h-223l-25 240h-164l-29 -240h-215zM141 1927q0 74 52.5 119t150.5 45q100 0 153.5 -45t53.5 -119q0 -72 -53.5 -116t-153.5 -44q-98 0 -150.5 44t-52.5 116zM236 1927q0 -78 108 -78q57 0 82 18.5t25 59.5q0 82 -107 82q-108 0 -108 -82z M283 442h118q-39 426 -57 672q-24 -342 -61 -672z" />
<glyph unicode="&#xc6;" horiz-adv-x="966" d="M18 0l207 1686h699v-224h-240v-491h152v-223h-152v-525h248v-223h-473v240h-195l-28 -240h-218zM287 442h172v1020h-60z" />
<glyph unicode="&#xc7;" horiz-adv-x="636" d="M57 266v1147q0 291 279 291q254 0 254 -287v-299h-203v299q0 63 -51 63.5t-51 -63.5v-1149q0 -63 51 -63t51 63v350h203v-348q0 -150 -60.5 -219t-193.5 -69q-279 -1 -279 284zM256 -41h166v-176q0 -88 -100 -88h-48v63h41q23 0 23 25v29h-82v147z" />
<glyph unicode="&#xc8;" horiz-adv-x="577" d="M-53 2091h256l223 -330h-193zM70 0v1686h462v-224h-239v-491h151v-223h-151v-525h250v-223h-473z" />
<glyph unicode="&#xc9;" horiz-adv-x="577" d="M70 0v1686h462v-224h-239v-491h151v-223h-151v-525h250v-223h-473zM154 1761l223 330h256l-287 -330h-192z" />
<glyph unicode="&#xca;" horiz-adv-x="577" d="M-12 1761l198 330h236l186 -330h-194l-117 224l-125 -224h-184zM70 0v1686h462v-224h-239v-491h151v-223h-151v-525h250v-223h-473z" />
<glyph unicode="&#xcb;" horiz-adv-x="577" d="M37 1786v256h201v-256h-201zM70 0v1686h462v-224h-239v-491h151v-223h-151v-525h250v-223h-473zM354 1786v256h201v-256h-201z" />
<glyph unicode="&#xcc;" d="M-156 2091h256l224 -330h-193zM74 0v1686h223v-1686h-223z" />
<glyph unicode="&#xcd;" d="M49 1761l223 330h256l-286 -330h-193zM74 0v1686h223v-1686h-223z" />
<glyph unicode="&#xce;" d="M-125 1761l199 330h235l187 -330h-195l-117 224l-125 -224h-184zM74 0v1686h223v-1686h-223z" />
<glyph unicode="&#xcf;" d="M-74 1786v256h201v-256h-201zM74 0v1686h223v-1686h-223zM244 1786v256h200v-256h-200z" />
<glyph unicode="&#xd0;" horiz-adv-x="671" d="M14 748v223h54v715h272q135 0 204.5 -76t69.5 -213v-1110q0 -287 -274 -287h-272v748h-54zM291 223h49q53 0 53 64v1112q0 63 -53 63h-49v-491h63v-223h-63v-525z" />
<glyph unicode="&#xd1;" horiz-adv-x="731" d="M66 0v1686h256q78 -496 163 -1055q-6 178 -6 528v527h187v-1686h-213q-156 743 -207 1032q6 -199 6 -598v-434h-186zM111 1815v165q45 49 129 50q51 0 133 -30t129 -30q80 0 112 53h4v-168q-49 -49 -129 -49q-51 0 -135 32t-127 32q-70 0 -112 -55h-4z" />
<glyph unicode="&#xd2;" horiz-adv-x="663" d="M-10 2091h256l223 -330h-193zM57 268v1149q0 287 274.5 287t274.5 -287v-1149q0 -287 -274.5 -287t-274.5 287zM281 268q0 -63 51 -63t51 63v1149q0 63 -51 63.5t-51 -63.5v-1149z" />
<glyph unicode="&#xd3;" horiz-adv-x="663" d="M57 268v1149q0 287 274.5 287t274.5 -287v-1149q0 -287 -274.5 -287t-274.5 287zM195 1761l223 330h256l-287 -330h-192zM281 268q0 -63 51 -63t51 63v1149q0 63 -51 63.5t-51 -63.5v-1149z" />
<glyph unicode="&#xd4;" horiz-adv-x="663" d="M23 1761l198 330h236l186 -330h-194l-117 224l-125 -224h-184zM57 268v1149q0 287 274.5 287t274.5 -287v-1149q0 -287 -274.5 -287t-274.5 287zM281 268q0 -63 51 -63t51 63v1149q0 63 -51 63.5t-51 -63.5v-1149z" />
<glyph unicode="&#xd5;" horiz-adv-x="663" d="M57 268v1149q0 287 274.5 287t274.5 -287v-1149q0 -287 -274.5 -287t-274.5 287zM78 1815v165q45 49 129 50q51 0 133 -30t129 -30q80 0 113 53h4v-168q-49 -49 -129 -49q-51 0 -135 32t-127 32q-70 0 -113 -55h-4zM281 268q0 -63 51 -63t51 63v1149q0 63 -51 63.5 t-51 -63.5v-1149z" />
<glyph unicode="&#xd6;" horiz-adv-x="663" d="M57 268v1149q0 287 274.5 287t274.5 -287v-1149q0 -287 -274.5 -287t-274.5 287zM72 1786v256h200v-256h-200zM281 268q0 -63 51 -63t51 63v1149q0 63 -51 63.5t-51 -63.5v-1149zM389 1786v256h201v-256h-201z" />
<glyph unicode="&#xd7;" horiz-adv-x="962" d="M129 627l233 231l-231 234l117 116l231 -231l234 233l116 -118l-231 -234l233 -233l-116 -117l-236 233l-233 -233z" />
<glyph unicode="&#xd8;" horiz-adv-x="663" d="M57 -193l58 259q-57 70 -58 202v1149q0 287 275 287q86 0 141 -29l45 203h88l-59 -260q59 -72 59 -201v-1149q0 -287 -274 -286q-88 0 -144 28l-45 -203h-86zM281 268q0 -63 51 -63t51 63v613l-102 -455v-158zM281 813l102 455v149q0 63 -51 63.5t-51 -63.5v-604z" />
<glyph unicode="&#xd9;" horiz-adv-x="673" d="M-4 2091h256l223 -330h-192zM63 268v1418h224v-1418q0 -63 51 -63t51 63v1418h221v-1418q0 -287 -272 -286q-275 -1 -275 286z" />
<glyph unicode="&#xda;" horiz-adv-x="673" d="M63 268v1418h224v-1418q0 -63 51 -63t51 63v1418h221v-1418q0 -287 -272 -286q-275 -1 -275 286zM199 1761l223 330h256l-287 -330h-192z" />
<glyph unicode="&#xdb;" horiz-adv-x="673" d="M27 1761l198 330h236l186 -330h-194l-117 224l-125 -224h-184zM63 268v1418h224v-1418q0 -63 51 -63t51 63v1418h221v-1418q0 -287 -272 -286q-275 -1 -275 286z" />
<glyph unicode="&#xdc;" horiz-adv-x="673" d="M63 268v1418h224v-1418q0 -63 51 -63t51 63v1418h221v-1418q0 -287 -272 -286q-275 -1 -275 286zM78 1786v256h201v-256h-201zM395 1786v256h201v-256h-201z" />
<glyph unicode="&#xdd;" horiz-adv-x="688" d="M12 1686h236q88 -524 102 -639q25 162 109 639h217l-223 -967v-719h-226v719zM211 1761l223 330h256l-287 -330h-192z" />
<glyph unicode="&#xde;" horiz-adv-x="677" d="M70 0v1686h223v-300h55q301 0 301 -303v-518q0 -147 -75.5 -225t-223.5 -78h-57v-262h-223zM293 485h57q76 0 76 80v518q0 80 -78 80h-55v-678z" />
<glyph unicode="&#xdf;" horiz-adv-x="677" d="M70 0v1452q0 252 241 252q240 0 240 -252v-430q0 -74 -43 -111q119 -39 119 -200v-469q0 -135 -53.5 -197.5t-174.5 -62.5q-35 0 -71 6v202q20 -6 53 -6q49 0 49 58v477q0 57 -49 57h-78v193h14q39 0 39 53v422q0 55 -45 55t-45 -55v-1444h-196z" />
<glyph unicode="&#xe0;" horiz-adv-x="585" d="M-49 1673h256l223 -330h-192zM41 182v187q0 109 30.5 172t96.5 110q63 43 158 90v297q0 49 -45 49t-45 -49v-268h-177v268q0 250 226 250q233 0 233 -250v-932q0 -76 10 -106h-182q-8 25 -8 63q-47 -82 -131 -81q-166 -1 -166 200zM238 219q0 -41 45 -41q29 0 43 31v371 q-31 -12 -52 -33q-37 -31 -36 -98v-230z" />
<glyph unicode="&#xe1;" horiz-adv-x="585" d="M41 182v187q0 109 30.5 172t96.5 110q63 43 158 90v297q0 49 -45 49t-45 -49v-268h-177v268q0 250 226 250q233 0 233 -250v-932q0 -76 10 -106h-182q-8 25 -8 63q-47 -82 -131 -81q-166 -1 -166 200zM156 1343l223 330h256l-287 -330h-192zM238 219q0 -41 45 -41 q29 0 43 31v371q-31 -12 -52 -33q-37 -31 -36 -98v-230z" />
<glyph unicode="&#xe2;" horiz-adv-x="585" d="M-16 1343l198 330h236l186 -330h-194l-117 224l-125 -224h-184zM41 182v187q0 109 30.5 172t96.5 110q63 43 158 90v297q0 49 -45 49t-45 -49v-268h-177v268q0 250 226 250q233 0 233 -250v-932q0 -76 10 -106h-182q-8 25 -8 63q-47 -82 -131 -81q-166 -1 -166 200z M238 219q0 -41 45 -41q29 0 43 31v371q-31 -12 -52 -33q-37 -31 -36 -98v-230z" />
<glyph unicode="&#xe3;" horiz-adv-x="585" d="M39 1397v166q45 49 129 49q51 0 133 -30t129 -30q80 0 113 54h4v-168q-49 -49 -129 -49q-51 0 -135 31.5t-127 31.5q-70 0 -113 -55h-4zM41 182v187q0 109 30.5 172t96.5 110q63 43 158 90v297q0 49 -45 49t-45 -49v-268h-177v268q0 250 226 250q233 0 233 -250v-932 q0 -76 10 -106h-182q-8 25 -8 63q-47 -82 -131 -81q-166 -1 -166 200zM238 219q0 -41 45 -41q29 0 43 31v371q-31 -12 -52 -33q-37 -31 -36 -98v-230z" />
<glyph unicode="&#xe4;" horiz-adv-x="585" d="M35 1368v256h201v-256h-201zM41 182v187q0 109 30.5 172t96.5 110q63 43 158 90v297q0 49 -45 49t-45 -49v-268h-177v268q0 250 226 250q233 0 233 -250v-932q0 -76 10 -106h-182q-8 25 -8 63q-47 -82 -131 -81q-166 -1 -166 200zM238 219q0 -41 45 -41q29 0 43 31v371 q-31 -12 -52 -33q-37 -31 -36 -98v-230zM352 1368v256h201v-256h-201z" />
<glyph unicode="&#xe5;" horiz-adv-x="585" d="M41 182v187q0 109 30.5 172t96.5 110q63 43 158 90v297q0 49 -45 49t-45 -49v-268h-177v268q0 250 226 250q233 0 233 -250v-932q0 -76 10 -106h-182q-8 25 -8 63q-47 -82 -131 -81q-166 -1 -166 200zM88 1509q0 74 52.5 119t150.5 45q100 0 153.5 -45t53.5 -119 q0 -72 -53.5 -115.5t-153.5 -43.5q-98 0 -150.5 43.5t-52.5 115.5zM182 1509q0 -78 109 -77q57 0 81.5 18t24.5 59q0 82 -106 82q-109 0 -109 -82zM238 219q0 -41 45 -41q29 0 43 31v371q-31 -12 -52 -33q-37 -31 -36 -98v-230z" />
<glyph unicode="&#xe6;" horiz-adv-x="849" d="M41 182v187q0 109 30.5 172t96.5 110q63 43 158 90v297q0 49 -45 49t-45 -49v-268h-177v268q0 250 226 250q88 0 141 -35q53 35 135 35q231 0 232 -260v-428h-275v-362q0 -51 43 -52q45 0 45 54v276h187v-278q0 -256 -232 -256q-66 0 -103.5 21.5t-66.5 70.5 q-43 -92 -170 -92q-180 -1 -180 200zM238 219q0 -41 45 -41q29 0 43 31v371q-31 -12 -52 -33q-37 -31 -36 -98v-230zM518 743h88v285q0 51 -45 51q-43 0 -43 -51v-285z" />
<glyph unicode="&#xe7;" horiz-adv-x="583" d="M57 240v786q0 121 60.5 191.5t179.5 70.5q117 0 173 -69.5t56 -190.5v-274h-182v278q0 49 -45 49t-45 -49v-792q0 -53 45 -53.5t45 53.5v278h186v-282q0 -119 -58 -186.5t-175 -67.5q-119 0 -179.5 69.5t-60.5 188.5zM217 -41h166v-176q0 -88 -100 -88h-47v63h40 q23 0 23 25v29h-82v147z" />
<glyph unicode="&#xe8;" horiz-adv-x="575" d="M-53 1673h256l223 -330h-193zM57 238v790q0 260 228 260q233 0 233 -260v-428h-274v-362q0 -51 41 -52q45 0 45 54v276h188v-278q0 -256 -233 -256q-228 0 -228 256zM244 743h86v285q0 51 -45 51q-41 0 -41 -51v-285z" />
<glyph unicode="&#xe9;" horiz-adv-x="575" d="M57 238v790q0 260 228 260q233 0 233 -260v-428h-274v-362q0 -51 41 -52q45 0 45 54v276h188v-278q0 -256 -233 -256q-228 0 -228 256zM150 1343l223 330h256l-287 -330h-192zM244 743h86v285q0 51 -45 51q-41 0 -41 -51v-285z" />
<glyph unicode="&#xea;" horiz-adv-x="575" d="M-23 1343l199 330h236l186 -330h-195l-116 224l-125 -224h-185zM57 238v790q0 260 228 260q233 0 233 -260v-428h-274v-362q0 -51 41 -52q45 0 45 54v276h188v-278q0 -256 -233 -256q-228 0 -228 256zM244 743h86v285q0 51 -45 51q-41 0 -41 -51v-285z" />
<glyph unicode="&#xeb;" horiz-adv-x="575" d="M29 1368v256h200v-256h-200zM57 238v790q0 260 228 260q233 0 233 -260v-428h-274v-362q0 -51 41 -52q45 0 45 54v276h188v-278q0 -256 -233 -256q-228 0 -228 256zM244 743h86v285q0 51 -45 51q-41 0 -41 -51v-285zM346 1368v256h201v-256h-201z" />
<glyph unicode="&#xec;" horiz-adv-x="403" d="M-111 1673h256l224 -330h-193zM131 0v1268h201v-1268h-201z" />
<glyph unicode="&#xed;" horiz-adv-x="417" d="M37 1343l223 330h256l-287 -330h-192zM74 0v1268h200v-1268h-200z" />
<glyph unicode="&#xee;" horiz-adv-x="516" d="M-53 1343l198 330h236l186 -330h-194l-117 224l-125 -224h-184zM158 0v1268h200v-1268h-200z" />
<glyph unicode="&#xef;" horiz-adv-x="448" d="M-35 1368v256h201v-256h-201zM125 0v1268h201v-1268h-201zM283 1368v256h200v-256h-200z" />
<glyph unicode="&#xf0;" horiz-adv-x="663" d="M57 274v541q0 250 224 250q70 0 120 -41v158q0 131 -18 188l-180 -207l-58 49l199 228q-39 41 -137 41v223q195 0 282 -96l89 98l57 -49l-98 -113q70 -133 69 -373v-897q0 -141 -69.5 -216.5t-204.5 -75.5t-205 75.5t-70 216.5zM281 268q0 -63 51 -63q49 0 49 63v549 q-10 29 -45 29q-55 0 -55 -70v-508z" />
<glyph unicode="&#xf1;" horiz-adv-x="622" d="M57 1397v166q45 49 129 49q51 0 133 -30t130 -30q80 0 112 54h4v-168q-49 -49 -129 -49q-51 0 -135 31.5t-127 31.5q-70 0 -113 -55h-4zM70 0v1268h170q6 -31 6 -68q59 88 155 88q158 0 158 -233v-1055h-201v1042q0 49 -41 50q-29 0 -47 -21v-1071h-200z" />
<glyph unicode="&#xf2;" horiz-adv-x="598" d="M-43 1673h256l223 -330h-192zM57 233v801q0 254 242 254t242 -254v-801q0 -123 -61.5 -187t-180.5 -64q-242 -1 -242 251zM254 242q0 -55 45 -55.5t45 55.5v784q0 55 -45 55t-45 -55v-784z" />
<glyph unicode="&#xf3;" horiz-adv-x="598" d="M57 233v801q0 254 242 254t242 -254v-801q0 -123 -61.5 -187t-180.5 -64q-242 -1 -242 251zM162 1343l223 330h256l-287 -330h-192zM254 242q0 -55 45 -55.5t45 55.5v784q0 55 -45 55t-45 -55v-784z" />
<glyph unicode="&#xf4;" horiz-adv-x="598" d="M-10 1343l198 330h236l186 -330h-194l-117 224l-125 -224h-184zM57 233v801q0 254 242 254t242 -254v-801q0 -123 -61.5 -187t-180.5 -64q-242 -1 -242 251zM254 242q0 -55 45 -55.5t45 55.5v784q0 55 -45 55t-45 -55v-784z" />
<glyph unicode="&#xf5;" horiz-adv-x="598" d="M45 1397v166q45 49 129 49q51 0 133 -30t129 -30q80 0 113 54h4v-168q-49 -49 -129 -49q-51 0 -135 31.5t-127 31.5q-70 0 -113 -55h-4zM57 233v801q0 254 242 254t242 -254v-801q0 -123 -61.5 -187t-180.5 -64q-242 -1 -242 251zM254 242q0 -55 45 -55.5t45 55.5v784 q0 55 -45 55t-45 -55v-784z" />
<glyph unicode="&#xf6;" horiz-adv-x="598" d="M41 1368v256h201v-256h-201zM57 233v801q0 254 242 254t242 -254v-801q0 -123 -61.5 -187t-180.5 -64q-242 -1 -242 251zM254 242q0 -55 45 -55.5t45 55.5v784q0 55 -45 55t-45 -55v-784zM358 1368v256h201v-256h-201z" />
<glyph unicode="&#xf7;" horiz-adv-x="962" d="M70 776v166h825v-166h-825zM377 356v256h207v-256h-207zM377 1106v256h207v-256h-207z" />
<glyph unicode="&#xf8;" horiz-adv-x="598" d="M57 -193l58 240q-57 63 -58 186v801q0 254 242 254q57 0 109 -20l47 192h86l-58 -241q57 -68 58 -185v-801q0 -123 -61.5 -187t-180.5 -64q-68 0 -109 16l-47 -191h-86zM254 242q0 -55 45 -55.5t45 55.5v403l-90 -375v-28zM254 631l90 373v22q0 55 -45 55t-45 -55v-395z " />
<glyph unicode="&#xf9;" horiz-adv-x="618" d="M-33 1673h256l223 -330h-192zM63 203v1065h201v-1032q0 -49 39 -50q27 0 45 21v1061h201v-1268h-170q-6 31 -6 68q-55 -78 -152 -78q-74 0 -116 57.5t-42 155.5z" />
<glyph unicode="&#xfa;" horiz-adv-x="618" d="M63 203v1065h201v-1032q0 -49 39 -50q27 0 45 21v1061h201v-1268h-170q-6 31 -6 68q-55 -78 -152 -78q-74 0 -116 57.5t-42 155.5zM172 1343l223 330h256l-286 -330h-193z" />
<glyph unicode="&#xfb;" horiz-adv-x="618" d="M0 1343l199 330h235l187 -330h-195l-117 224l-125 -224h-184zM63 203v1065h201v-1032q0 -49 39 -50q27 0 45 21v1061h201v-1268h-170q-6 31 -6 68q-55 -78 -152 -78q-74 0 -116 57.5t-42 155.5z" />
<glyph unicode="&#xfc;" horiz-adv-x="618" d="M51 1368v256h201v-256h-201zM63 203v1065h201v-1032q0 -49 39 -50q27 0 45 21v1061h201v-1268h-170q-6 31 -6 68q-55 -78 -152 -78q-74 0 -116 57.5t-42 155.5zM369 1368v256h200v-256h-200z" />
<glyph unicode="&#xfd;" horiz-adv-x="571" d="M16 1268h209q53 -582 62 -824q8 156 75 824h191l-166 -1241q-23 -170 -80 -246t-194 -76q-33 0 -78 8v199q31 -6 69 -6q41 0 58.5 35.5t23.5 109.5zM152 1343l223 330h256l-287 -330h-192z" />
<glyph unicode="&#xfe;" horiz-adv-x="624" d="M70 -285v1971h200v-435q43 37 113 37q184 0 184 -233v-842q0 -231 -184 -231q-72 0 -113 34v-301h-200zM270 217q14 -27 47 -27q49 0 50 50v788q0 51 -50 51q-31 0 -47 -28v-834z" />
<glyph unicode="&#xff;" horiz-adv-x="571" d="M16 1268h209q53 -582 62 -824q8 156 75 824h191l-166 -1241q-23 -170 -80 -246t-194 -76q-33 0 -78 8v199q31 -6 69 -6q41 0 58.5 35.5t23.5 109.5zM31 1368v256h200v-256h-200zM348 1368v256h201v-256h-201z" />
<glyph unicode="&#x152;" horiz-adv-x="890" d="M57 268v1149q0 287 275 287q66 0 112 -18h402v-224h-240v-491h152v-223h-152v-525h250v-223h-412q-47 -18 -112 -18q-275 -1 -275 286zM281 268q0 -63 51 -63q33 0 51 6v1264q-18 6 -51 6q-51 0 -51 -64v-1149z" />
<glyph unicode="&#x153;" horiz-adv-x="872" d="M57 233v801q0 254 242 254q86 0 143 -39q55 39 140 39q233 0 233 -260v-428h-274v-362q0 -51 41 -52q45 0 45 54v276h188v-278q0 -256 -233 -256q-84 0 -142 34q-53 -35 -141 -34q-242 -1 -242 251zM254 242q0 -55 45 -55.5t45 55.5v784q0 55 -45 55t-45 -55v-784z M541 743h86v285q0 51 -45 51q-41 0 -41 -51v-285z" />
<glyph unicode="&#x178;" horiz-adv-x="688" d="M12 1686h236q88 -524 102 -639q25 162 109 639h217l-223 -967v-719h-226v719zM90 1786v256h201v-256h-201zM408 1786v256h200v-256h-200z" />
<glyph unicode="&#x2c6;" horiz-adv-x="796" d="M88 1343l199 330h235l187 -330h-195l-117 224l-125 -224h-184z" />
<glyph unicode="&#x2dc;" horiz-adv-x="647" d="M70 1397v166q45 49 129 49q51 0 133 -30t129 -30q80 0 112 54h5v-168q-49 -49 -129 -49q-51 0 -135.5 31.5t-127.5 31.5q-70 0 -112 -55h-4z" />
<glyph unicode="&#x3bc;" horiz-adv-x="624" d="M70 -285v1553h200v-1032q0 -49 39 -50q25 0 45 21v1061h201v-1268h-170q-6 31 -6 68q-43 -61 -109 -74v-279h-200z" />
<glyph unicode="&#x2000;" horiz-adv-x="1044" />
<glyph unicode="&#x2001;" horiz-adv-x="2091" />
<glyph unicode="&#x2002;" horiz-adv-x="1044" />
<glyph unicode="&#x2003;" horiz-adv-x="2091" />
<glyph unicode="&#x2004;" horiz-adv-x="696" />
<glyph unicode="&#x2005;" horiz-adv-x="522" />
<glyph unicode="&#x2006;" horiz-adv-x="348" />
<glyph unicode="&#x2007;" horiz-adv-x="348" />
<glyph unicode="&#x2008;" horiz-adv-x="260" />
<glyph unicode="&#x2009;" horiz-adv-x="417" />
<glyph unicode="&#x200a;" horiz-adv-x="114" />
<glyph unicode="&#x2010;" d="M20 764v170h334v-170h-334z" />
<glyph unicode="&#x2011;" d="M20 764v170h334v-170h-334z" />
<glyph unicode="&#x2012;" d="M20 764v170h334v-170h-334z" />
<glyph unicode="&#x2013;" horiz-adv-x="575" d="M20 764v170h537v-170h-537z" />
<glyph unicode="&#x2014;" horiz-adv-x="913" d="M20 764v170h877v-170h-877z" />
<glyph unicode="&#x2018;" horiz-adv-x="321" d="M57 1321v233q0 66 39 108t117 42h27v-88h-27q-25 0 -34 -10.5t-9 -36.5v-37h94v-211h-207z" />
<glyph unicode="&#x2019;" horiz-adv-x="321" d="M57 1475v211h207v-232q0 -66 -39 -108.5t-116 -42.5h-27v88h27q43 0 43 47v37h-95z" />
<glyph unicode="&#x201a;" horiz-adv-x="344" d="M70 45v211h206v-231q0 -66 -38.5 -109t-116.5 -43h-27v88h27q43 0 43 49v35h-94z" />
<glyph unicode="&#x201c;" horiz-adv-x="643" d="M57 1321v233q0 66 39 108t117 42h27v-88h-27q-25 0 -34 -10.5t-9 -36.5v-37h94v-211h-207zM379 1321v233q0 66 39 108t117 42h26v-88h-26q-25 0 -34 -10.5t-9 -36.5v-37h94v-211h-207z" />
<glyph unicode="&#x201d;" horiz-adv-x="643" d="M57 1475v211h207v-232q0 -66 -39 -108.5t-116 -42.5h-27v88h27q43 0 43 47v37h-95zM379 1475v211h207v-232q0 -66 -39 -108.5t-117 -42.5h-27v88h27q43 0 43 47v37h-94z" />
<glyph unicode="&#x201e;" horiz-adv-x="688" d="M70 45v211h206v-231q0 -66 -38.5 -109t-116.5 -43h-27v88h27q43 0 43 49v35h-94zM414 45v211h207v-231q0 -66 -39 -109t-117 -43h-27v88h27q43 0 43 49v35h-94z" />
<glyph unicode="&#x2022;" horiz-adv-x="432" d="M57 962.5q0 79.5 43 132t117 52.5q72 0 115 -52.5t43 -132t-43 -132t-115 -52.5q-74 0 -117 52.5t-43 132z" />
<glyph unicode="&#x2026;" horiz-adv-x="1607" d="M57 0v256h207v-256h-207zM700 0v256h207v-256h-207zM1343 0v256h207v-256h-207z" />
<glyph unicode="&#x202f;" horiz-adv-x="417" />
<glyph unicode="&#x2039;" horiz-adv-x="397" d="M33 565v236l332 205v-187l-226 -135l226 -143v-195z" />
<glyph unicode="&#x203a;" horiz-adv-x="397" d="M33 346v195l225 143l-225 135v187l332 -205v-236z" />
<glyph unicode="&#x205f;" horiz-adv-x="522" />
<glyph unicode="&#x20ac;" horiz-adv-x="710" d="M14 584l25 168h74v215h-99l25 168h74v241q0 172 81.5 250t284.5 78q119 0 217 -10l-34 -221q-84 12 -175 12q-94 0 -122.5 -23.5t-28.5 -85.5v-241h270l-26 -168h-244v-215h211l-29 -168h-182v-320q0 -63 59 -63q61 0 62 63v162h219v-158q0 -287 -281 -286 q-283 0 -282 286v316h-99z" />
<glyph unicode="&#x2122;" horiz-adv-x="1007" d="M49 1583v103h332v-103h-98v-676h-136v676h-98zM453 907v779h178q63 -541 63 -543q6 94 64 543h180v-779h-123v219q0 90 8 275q-8 -80 -71 -494h-115q-63 436 -70 494q8 -184 8 -275v-219h-122z" />
<glyph unicode="&#xe000;" horiz-adv-x="1270" d="M0 1270h1270v-1270h-1270v1270z" />
<glyph unicode="&#xfb01;" horiz-adv-x="737" d="M14 1094v174h64v176q0 252 203 252q55 0 94 -13v-170q-6 2 -29 3q-68 0 -67 -76v-172h92v-174h-92v-1094h-201v1094h-64zM465 0v1268h201v-1268h-201zM465 1430v256h201v-256h-201z" />
<glyph unicode="&#xfb02;" horiz-adv-x="731" d="M14 1094v174h64v176q0 252 203 252q55 0 94 -13v-170q-6 2 -29 3q-68 0 -67 -76v-172h92v-174h-92v-1094h-201v1094h-64zM461 0v1686h201v-1686h-201z" />
<glyph unicode="&#xfb03;" horiz-adv-x="1128" d="M856 0v1268h200v-1268h-200zM856 1430v256h200v-256h-200zM405 1094v174h64v176q0 252 203 252q55 0 94 -13v-170q-6 2 -29 3q-68 0 -67 -76v-172h92v-174h-92v-1094h-201v1094h-64zM14 1094v174h64v176q0 252 203 252q55 0 94 -13v-170q-6 2 -29 3q-68 0 -67 -76v-172 h92v-174h-92v-1094h-201v1094h-64z" />
<glyph unicode="&#xfb04;" horiz-adv-x="1122" d="M852 0v1686h200v-1686h-200zM405 1094v174h64v176q0 252 203 252q55 0 94 -13v-170q-6 2 -29 3q-68 0 -67 -76v-172h92v-174h-92v-1094h-201v1094h-64zM14 1094v174h64v176q0 252 203 252q55 0 94 -13v-170q-6 2 -29 3q-68 0 -67 -76v-172h92v-174h-92v-1094h-201v1094 h-64z" />
</font>
</defs>
</svg>
